Скачать через торрент музыку Craig Armstrong - Romeo + Juliet, Volume 2 - 1997, FLAC бесплатно без регистрации torrent

Если у вас наблюдаются проблемы со скриншотами, переходом по ссылками, скачиванием торрентов - проблемы в блокировщике рекламы AdBlock. #хорошегоДня!


Статистика раздачи
Размер:  325 MB   |    Зарегистрирован:  6 лет 5 месяцев   |    .torrent скачан:  45 раз   |   
Раздают:  1  
   
Загрузка...
 
Автор Сообщение

Galfimbul

avatar Galfimbul


Craig Armstrong - Romeo + Juliet, Volume 2

Жанр: Score
Год выпуска диска: 1997
Аудио кодек: FLAC
Тип рипа: tracks+.cue
Битрейт аудио: lossless
Трэклист:
1. Prologue
2. O Verona
3. Montague Boys
4. Gas Station Scene
5. O Verona (Reprise)
6. Introduction to Romeo
7. Queen Mab Interlude
8. Young Hearts Run Free [Ballroom Version]
9. Kissing You (Love Theme from Romeo + Juliet) [Instrumental]
10. Balcony Scene - Quindon Tarver
11. When Doves Cry
12. Challenge - Butthole Surfers, The Dust Brothers
13. Tybalt Arrives
14. Fight Scene - Mundy
15. Mercutio's Death
16. Drive of Death - Justin Warfield
17. Slow Movement
18. Morning Breaks - Kym Mazelle, Harold Perrineau, Paul Sorvino
19. Juliet's Requiem
20. Mantua
21. Escape from Mantua
22. Death Scene
23. Liebestod
24. Epilogue
Доп. информация:
 
Exact Audio Copy V0.99 prebeta 4 from 23. January 2008

EAC extraction logfile from 8. April 2009, 23:29

Craig Armstrong / Romeo and Juliet - Volume 2

Used drive : PIONEER DVD-RW DVR-115D Adapter: 4 ID: 0

Read mode : SecureUtilize accurate stream : YesDefeat audio cache : YesMake use of C2 pointers : No

Read offset correction : 48Overread into Lead-In and Lead-Out : NoFill up missing offset samples with silence : YesDelete leading and trailing silent blocks : NoNull samples used in CRC calculations : YesUsed interface : Native Win32 interface for Win NT & 2000Gap handling : Appended to previous track

Used output format : User Defined EncoderSelected bitrate : 768 kBit/sQuality : HighAdd ID3 tag : NoCommand line compressor : C:\Program Files (x86)\Exact Audio Copy\FLAC\FLAC.EXEAdditional command line options : -6 -V -T "ARTIST=%a" -T "TITLE=%t" -T "ALBUM=%g" -T "DATE=%y" -T "TRACKNUMBER=%n" -T "GENRE=%m" -T "COMMENT=%e" %s -o %d

TOC of the extracted CD

Track | Start | Length | Start sector | End sector --------------------------------------------------------- 1 | 0:00.00 | 0:43.55 | 0 | 3279 2 | 0:43.55 | 1:28.02 | 3280 | 9881 3 | 2:11.57 | 1:02.60 | 9882 | 14591 4 | 3:14.42 | 1:52.05 | 14592 | 22996 5 | 5:06.47 | 1:34.60 | 22997 | 30106 6 | 6:41.32 | 2:06.73 | 30107 | 39629 7 | 8:48.30 | 0:22.00 | 39630 | 41279 8 | 9:10.30 | 3:26.72 | 41280 | 56801 9 | 12:37.27 | 3:32.73 | 56802 | 72774 10 | 16:10.25 | 5:22.35 | 72775 | 96959 11 | 21:32.60 | 4:06.02 | 96960 | 115411 12 | 25:38.62 | 1:23.63 | 115412 | 121699 13 | 27:02.50 | 1:48.37 | 121700 | 129836 14 | 28:51.12 | 3:09.58 | 129837 | 144069 15 | 32:00.70 | 3:38.57 | 144070 | 160476 16 | 35:39.52 | 1:25.00 | 160477 | 166851 17 | 37:04.52 | 12:44.15 | 166852 | 224166 18 | 49:48.67 | 2:36.25 | 224167 | 235891 19 | 52:25.17 | 1:57.00 | 235892 | 244666 20 | 54:22.17 | 1:16.70 | 244667 | 250436 21 | 55:39.12 | 3:56.55 | 250437 | 268191 22 | 59:35.67 | 4:12.73 | 268192 | 287164 23 | 63:48.65 | 1:27.55 | 287165 | 293744 24 | 65:16.45 | 0:30.67 | 293745 | 296061

Track 1

Filename C:\Romeo and Juliet, Volume 2 (1997, FLAC) - Craig Armstrong and Various\01 - Prologue.wav

Pre-gap length 0:00:02.00

Peak level 23.1 % Track quality 100.0 % Test CRC 2472EBFB Copy CRC 2472EBFB Accurately ripped (confidence 16) [6E7B5575] Copy OK

Track 2

Filename C:\Romeo and Juliet, Volume 2 (1997, FLAC) - Craig Armstrong and Various\02 - O Verona.wav

Peak level 97.9 % Track quality 100.0 % Test CRC D8CEF549 Copy CRC D8CEF549 Accurately ripped (confidence 16) [DA6BCA7B] Copy OK

Track 3

Filename C:\Romeo and Juliet, Volume 2 (1997, FLAC) - Craig Armstrong and Various\03 - The Montague Boys.wav

Peak level 98.9 % Track quality 100.0 % Test CRC 332E5078 Copy CRC 332E5078 Accurately ripped (confidence 16) [1EDA5232] Copy OK

Track 4

Filename C:\Romeo and Juliet, Volume 2 (1997, FLAC) - Craig Armstrong and Various\04 - Gas Station Scene.wav

Peak level 97.9 % Track quality 100.0 % Test CRC 667CF06B Copy CRC 667CF06B Accurately ripped (confidence 16) [7771B7CC] Copy OK

Track 5

Filename C:\Romeo and Juliet, Volume 2 (1997, FLAC) - Craig Armstrong and Various\05 - O Verona (Reprise).wav

Peak level 98.6 % Track quality 100.0 % Test CRC 98EAA32A Copy CRC 98EAA32A Accurately ripped (confidence 16) [37F8C07C] Copy OK

Track 6

Filename C:\Romeo and Juliet, Volume 2 (1997, FLAC) - Craig Armstrong and Various\06 - Introduction To Romeo.wav

Pre-gap length 0:00:03.20

Peak level 92.3 % Track quality 100.0 % Test CRC 7C83FF7E Copy CRC 7C83FF7E Accurately ripped (confidence 16) [F7BA1BB1] Copy OK

Track 7

Filename C:\Romeo and Juliet, Volume 2 (1997, FLAC) - Craig Armstrong and Various\07 - Queen Mab Interlude.wav

Peak level 17.5 % Track quality 100.0 % Test CRC 0FD810BC Copy CRC 0FD810BC Accurately ripped (confidence 16) [7BC4CA83] Copy OK

Track 8

Filename C:\Romeo and Juliet, Volume 2 (1997, FLAC) - Craig Armstrong and Various\08 - Young Hearts Run Free (Ballroom Version).wav

Peak level 99.2 % Track quality 100.0 % Test CRC 7DE33B24 Copy CRC 7DE33B24 Accurately ripped (confidence 16) [3A18EE0D] Copy OK

Track 9

Filename C:\Romeo and Juliet, Volume 2 (1997, FLAC) - Craig Armstrong and Various\09 - Kissing You (Love Theme From Romeo + Juliet) Instrumental.wav

Pre-gap length 0:00:01.36

Peak level 83.0 % Track quality 100.0 % Test CRC C43F42F7 Copy CRC C43F42F7 Accurately ripped (confidence 16) [FC79DCBF] Copy OK

Track 10

Filename C:\Romeo and Juliet, Volume 2 (1997, FLAC) - Craig Armstrong and Various\10 - Balcony Scene.wav

Peak level 84.3 % Track quality 100.0 % Test CRC C329BAA8 Copy CRC C329BAA8 Accurately ripped (confidence 16) [C2F4A879] Copy OK

Track 11

Filename C:\Romeo and Juliet, Volume 2 (1997, FLAC) - Craig Armstrong and Various\11 - When Dove's Cry.wav

Pre-gap length 0:00:01.70

Peak level 98.4 % Track quality 99.9 % Test CRC A612A5E6 Copy CRC 923966C5 Accurately ripped (confidence 16) [A9156787] Copy OK

Track 12

Filename C:\Romeo and Juliet, Volume 2 (1997, FLAC) - Craig Armstrong and Various\12 - A Challenge.wav

Peak level 97.7 % Track quality 100.0 % Test CRC FC9D1F27 Copy CRC FC9D1F27 Accurately ripped (confidence 16) [FA1BD52D] Copy OK

Track 13

Filename C:\Romeo and Juliet, Volume 2 (1997, FLAC) - Craig Armstrong and Various\13 - Tybalt Arrives (Featuring Butthole Surfers And The Dust Brothers).wav

Peak level 98.2 % Track quality 100.0 % Test CRC 6972958D Copy CRC 6972958D Accurately ripped (confidence 16) [84799E5C] Copy OK

Track 14

Filename C:\Romeo and Juliet, Volume 2 (1997, FLAC) - Craig Armstrong and Various\14 - Fight Scene.wav

Peak level 99.0 % Track quality 100.0 % Test CRC 9F358E6D Copy CRC 9F358E6D Accurately ripped (confidence 15) [5EC8EC3A] Copy OK

Track 15

Filename C:\Romeo and Juliet, Volume 2 (1997, FLAC) - Craig Armstrong and Various\15 - Mercutio's Death.wav

Peak level 97.7 % Track quality 100.0 % Test CRC 796AB247 Copy CRC 796AB247 Accurately ripped (confidence 15) [935EF2AE] Copy OK

Track 16

Filename C:\Romeo and Juliet, Volume 2 (1997, FLAC) - Craig Armstrong and Various\16 - Drive Of Death.wav

Pre-gap length 0:00:00.62

Peak level 98.2 % Track quality 99.8 % Test CRC B26217A1 Copy CRC B26217A1 Accurately ripped (confidence 15) [B7F9C796] Copy OK

Track 17

Filename C:\Romeo and Juliet, Volume 2 (1997, FLAC) - Craig Armstrong and Various\17 - Slow Movement.wav

Peak level 90.0 % Track quality 100.0 % Test CRC F5C1F7A3 Copy CRC F5C1F7A3 Accurately ripped (confidence 12) [9956953B] Copy OK

Track 18

Filename C:\Romeo and Juliet, Volume 2 (1997, FLAC) - Craig Armstrong and Various\18 - Morning Breaks.wav

Peak level 23.1 % Track quality 100.0 % Test CRC 01AA86DB Copy CRC 01AA86DB Accurately ripped (confidence 13) [C1B1BB5B] Copy OK

Track 19

Filename C:\Romeo and Juliet, Volume 2 (1997, FLAC) - Craig Armstrong and Various\19 - Juliet's Requiem.wav

Peak level 67.4 % Track quality 100.0 % Test CRC 359F7049 Copy CRC 359F7049 Accurately ripped (confidence 14) [0330FC19] Copy OK

Track 20

Filename C:\Romeo and Juliet, Volume 2 (1997, FLAC) - Craig Armstrong and Various\20 - Mantua.wav

Peak level 49.6 % Track quality 100.0 % Test CRC 02D7E98B Copy CRC 02D7E98B Accurately ripped (confidence 13) [CFB24238] Copy OK

Track 21

Filename C:\Romeo and Juliet, Volume 2 (1997, FLAC) - Craig Armstrong and Various\21 - Escape From Mantua (Featuring Mundy).wav

Peak level 97.9 % Track quality 99.1 % Test CRC 63CC1181 Copy CRC 63CC1181 Accurately ripped (confidence 13) [126CF5CE] Copy OK

Track 22

Filename C:\Romeo and Juliet, Volume 2 (1997, FLAC) - Craig Armstrong and Various\22 - Death Scene.wav

Peak level 97.9 % Track quality 100.0 % Test CRC 6235FE70 Copy CRC 6235FE70 Accurately ripped (confidence 14) [1EFBC8CE] Copy OK

Track 23

Filename C:\Romeo and Juliet, Volume 2 (1997, FLAC) - Craig Armstrong and Various\23 - Liebestod.wav

Peak level 25.9 % Track quality 100.0 % Test CRC 66C30C44 Copy CRC 66C30C44 Accurately ripped (confidence 14) [90E4BC4E] Copy OK

Track 24

Filename C:\Romeo and Juliet, Volume 2 (1997, FLAC) - Craig Armstrong and Various\24 - Epilogue.wav

Peak level 24.6 % Track quality 99.6 % Test CRC CF73D6E5 Copy CRC CF73D6E5 Accurately ripped (confidence 13) [E2AB832D] Copy OK

All tracks accurately ripped

No errors occurred

End of status report


Трекер:  [ 08-Июл-2011 12:12 ]

  

Скачать .torrent

Размер .torrent файла 15 KB


Размер: 325 MB
Хэш (hash) релиза: b7085631a130effe7b0fb71cc0648d5e92a63954

Еще никто не оставлял запись к записи скачать торрент Craig Armstrong - Romeo + Juliet, Volume 2 - 1997, FLAC . Будь первым!

!Обратная связь