Скачать через торрент музыку Thomas Newman - The Shawshank Redemption Побег из Шоушенка - 1994, FLAC бесплатно без регистрации torrent

Если у вас наблюдаются проблемы со скриншотами, переходом по ссылками, скачиванием торрентов - проблемы в блокировщике рекламы AdBlock. #хорошегоДня!


Статистика раздачи
Размер:  194 MB   |    Зарегистрирован:  6 лет 5 месяцев   |    .torrent скачан:  35 раз   |   
Раздают:  1  
   
Загрузка...
 
Автор Сообщение

Galfimbul

avatar Galfimbul


Thomas Newman - The Shawshank Redemption / Побег из Шоушенка

Жанр: Score
Год выпуска диска: 1994
Производитель диска: US
Label: Epic Soundtrax
Аудио кодек: FLAC
Тип рипа: tracks+.cue
Битрейт аудио: lossless
Продолжительность: 53:41
Трэклист:
1. May
2. Shawshank Prison
3. New Fish
4. Rock Hammer
5. Inch of His Life
6. If I Didn't Care - The Inkspots
7. Brooks Was Here
8. His Judgement Cometh
9. Suds of the Roof
10. Workfield
11. Shawshank Redemption
12. Love Sick Blues - Hank Williams
13. Elmo Blatch
14. Sisters
15. Zihuatanejo
16. Duettino, Sull 'Aria - Deutsch Oper Berlin / Karl Böhm
17. Lovely Raquel
18. And That Right Soon
19. Compass and Guns
20. So Was Red
21. End Title

"Правильный" рип
 
EAC extraction logfile from 29. October 2006, 16:32 for CDNewman, Thomas / The Shawshank Redemption

Used drive : SONY DVD+-RW DW-D56A Adapter: 3 ID: 0Read mode : Secure with NO C2, accurate stream, disable cacheRead offset correction : 12Overread into Lead-In and Lead-Out : No

Used output format : C:\Program Files\Exact Audio Copy\flac.exe (User Defined Encoder) 320 kBit/s Additional command line options : -V -8 -T "artist=%a" -T "title=%t" -T "album=%g" -T "date=%y" -T "tracknumber=%n" -T "genre=%m" %s

Other options : Fill up missing offset samples with silence : Yes Delete leading and trailing silent blocks : No Installed external ASPI interface

Track 1 Filename H:\Music004_moviez\Shawshank Redemption, The (1994, FLAC-EAC-CUE) - Thomas Newman\01 - May.wav

Pre-gap length 0:00:02.00

Peak level 42.2 % Track quality 99.6 % Test CRC 641C9E7B Copy CRC 641C9E7B Copy OK

Track 2 Filename H:\Music004_moviez\Shawshank Redemption, The (1994, FLAC-EAC-CUE) - Thomas Newman\02 - Shawshank Redemption (Stoic Theme).wav

Peak level 90.4 % Track quality 100.0 % Test CRC 22AE3AA4 Copy CRC 22AE3AA4 Copy OK

Track 3 Filename H:\Music004_moviez\Shawshank Redemption, The (1994, FLAC-EAC-CUE) - Thomas Newman\03 - New Fish.wav

Pre-gap length 0:00:00.01

Peak level 12.3 % Track quality 100.0 % Test CRC E7DE7048 Copy CRC E7DE7048 Copy OK

Track 4 Filename H:\Music004_moviez\Shawshank Redemption, The (1994, FLAC-EAC-CUE) - Thomas Newman\04 - Rock Hammer.wav

Pre-gap length 0:00:01.32

Peak level 46.9 % Track quality 100.0 % Test CRC 336828CC Copy CRC 336828CC Copy OK

Track 5 Filename H:\Music004_moviez\Shawshank Redemption, The (1994, FLAC-EAC-CUE) - Thomas Newman\05 - An Inch of His Life.wav

Peak level 47.4 % Track quality 100.0 % Test CRC 36D9BD97 Copy CRC 36D9BD97 Copy OK

Track 6 Filename H:\Music004_moviez\Shawshank Redemption, The (1994, FLAC-EAC-CUE) - Thomas Newman\06 - If I Didn't Care.wav

Pre-gap length 0:00:00.76

Peak level 39.6 % Track quality 99.9 % Test CRC DD842893 Copy CRC DD842893 Copy OK

Track 7 Filename H:\Music004_moviez\Shawshank Redemption, The (1994, FLAC-EAC-CUE) - Thomas Newman\07 - Brooks Was Here.wav

Pre-gap length 0:00:01.32

Peak level 14.4 % Track quality 99.9 % Test CRC 338E13B6 Copy CRC 338E13B6 Copy OK

Track 8 Filename H:\Music004_moviez\Shawshank Redemption, The (1994, FLAC-EAC-CUE) - Thomas Newman\08 - His Judgement Cometh.wav

Peak level 85.7 % Track quality 100.0 % Test CRC 99D54B8C Copy CRC 99D54B8C Copy OK

Track 9 Filename H:\Music004_moviez\Shawshank Redemption, The (1994, FLAC-EAC-CUE) - Thomas Newman\09 - Suds on the Roof.wav

Pre-gap length 0:00:00.01

Peak level 28.4 % Track quality 100.0 % Test CRC 30CC81A6 Copy CRC 30CC81A6 Copy OK

Track 10 Filename H:\Music004_moviez\Shawshank Redemption, The (1994, FLAC-EAC-CUE) - Thomas Newman\10 - Workfield.wav

Pre-gap length 0:00:00.01

Peak level 33.6 % Track quality 100.0 % Test CRC 1A0290B9 Copy CRC 1A0290B9 Copy OK

Track 11 Filename H:\Music004_moviez\Shawshank Redemption, The (1994, FLAC-EAC-CUE) - Thomas Newman\11 - Shawshank Redemption.wav

Pre-gap length 0:00:00.85

Peak level 94.4 % Track quality 100.0 % Test CRC 5E1C9285 Copy CRC 5E1C9285 Copy OK

Track 12 Filename H:\Music004_moviez\Shawshank Redemption, The (1994, FLAC-EAC-CUE) - Thomas Newman\12 - Lovesick Blues.wav

Pre-gap length 0:00:01.45

Peak level 38.1 % Track quality 100.0 % Test CRC 6A85E364 Copy CRC 6A85E364 Copy OK

Track 13 Filename H:\Music004_moviez\Shawshank Redemption, The (1994, FLAC-EAC-CUE) - Thomas Newman\13 - Elmo Blatch.wav

Peak level 28.9 % Track quality 100.0 % Test CRC 36444359 Copy CRC 36444359 Copy OK

Track 14 Filename H:\Music004_moviez\Shawshank Redemption, The (1994, FLAC-EAC-CUE) - Thomas Newman\14 - Sisters.wav

Peak level 63.0 % Track quality 99.8 % Test CRC 6F247FB1 Copy CRC 6F247FB1 Copy OK

Track 15 Filename H:\Music004_moviez\Shawshank Redemption, The (1994, FLAC-EAC-CUE) - Thomas Newman\15 - Zihuatanejo.wav

Peak level 41.3 % Track quality 100.0 % Test CRC 49414441 Copy CRC 49414441 Copy OK

Track 16 Filename H:\Music004_moviez\Shawshank Redemption, The (1994, FLAC-EAC-CUE) - Thomas Newman\16 - Duettino - Sull 'Aria [from 'The Marriage of Figaro'].wav

Pre-gap length 0:00:01.65

Peak level 44.4 % Track quality 100.0 % Test CRC 8C275BA0 Copy CRC 8C275BA0 Copy OK

Track 17 Filename H:\Music004_moviez\Shawshank Redemption, The (1994, FLAC-EAC-CUE) - Thomas Newman\17 - Lovely Raquel.wav

Pre-gap length 0:00:01.32

Peak level 36.2 % Track quality 100.0 % Test CRC 3922EF00 Copy CRC 3922EF00 Copy OK

Track 18 Filename H:\Music004_moviez\Shawshank Redemption, The (1994, FLAC-EAC-CUE) - Thomas Newman\18 - And That Right Soon.wav

Peak level 57.6 % Track quality 100.0 % Test CRC 894C292F Copy CRC 894C292F Copy OK

Track 19 Filename H:\Music004_moviez\Shawshank Redemption, The (1994, FLAC-EAC-CUE) - Thomas Newman\19 - Compass and Guns.wav

Peak level 49.8 % Track quality 99.9 % Test CRC 0193BEB7 Copy CRC 0193BEB7 Copy OK

Track 20 Filename H:\Music004_moviez\Shawshank Redemption, The (1994, FLAC-EAC-CUE) - Thomas Newman\20 - So Was Red.wav

Peak level 41.7 % Track quality 100.0 % Test CRC 0B7E292C Copy CRC 0B7E292C Copy OK

Track 21 Filename H:\Music004_moviez\Shawshank Redemption, The (1994, FLAC-EAC-CUE) - Thomas Newman\21 - End Titles.wav

Peak level 77.9 % Track quality 100.0 % Test CRC 5C24CD4D Copy CRC 5C24CD4D Copy OK

No errors occured

End of status report
[Verification date: 28.01.2009 4:05:04]
[Disc ID: 00253a62-024a28a5-2c0c9515]
Track [ CRC ] Status
01 [84a6868a] (00/19) No matches
02 [bd535fb6] (00/19) No matches
03 [856c262a] (00/19) No matches
04 [2cb9734a] (00/19) No matches
05 [2dcf727a] (00/19) No matches
06 [da8ff5e6] (00/19) No matches
07 [5df0e61e] (00/18) No matches
08 [3dd2b0af] (00/19) No matches
09 [8025a1da] (00/19) No matches
10 [e562c580] (00/19) No matches
11 [17d7a26c] (00/19) No matches
12 [cbf79a9d] (00/19) No matches
13 [5603b95c] (00/19) No matches
14 [06b38113] (00/19) No matches
15 [c265fb40] (00/19) No matches
16 [9ee2758a] (00/19) No matches
17 [7e9bed33] (00/19) No matches
18 [c438c43c] (00/19) No matches
19 [c16825fd] (00/19) No matches
20 [05144524] (00/19) No matches
21 [54c94fc7] (00/19) No matches
Offsetted by -6:
01 [9316dc63] (06/19) Accurately ripped as in pressing(s) #3
02 [97fdf487] (06/19) Accurately ripped as in pressing(s) #3
03 [4a8af8fc] (06/19) Accurately ripped as in pressing(s) #3
04 [0975bc9f] (06/19) Accurately ripped as in pressing(s) #3
05 [4b01b5b1] (06/19) Accurately ripped as in pressing(s) #3
06 [3df93b66] (06/19) Accurately ripped as in pressing(s) #3
07 [60996e92] (06/18) Accurately ripped as in pressing(s) #3
08 [250420f5] (06/19) Accurately ripped as in pressing(s) #3
09 [91199d6c] (06/19) Accurately ripped as in pressing(s) #3
10 [a35ca604] (06/19) Accurately ripped as in pressing(s) #3
11 [0ecca738] (06/19) Accurately ripped as in pressing(s) #3
12 [b36afbc1] (06/19) Accurately ripped as in pressing(s) #3
13 [97c24b1e] (06/19) Accurately ripped as in pressing(s) #3
14 [4c8de958] (06/19) Accurately ripped as in pressing(s) #3
15 [918e57df] (06/19) Accurately ripped as in pressing(s) #3
16 [3a626acc] (06/19) Accurately ripped as in pressing(s) #3
17 [ac2f29d7] (06/19) Accurately ripped as in pressing(s) #3
18 [48754e80] (06/19) Accurately ripped as in pressing(s) #3
19 [af367df9] (06/19) Accurately ripped as in pressing(s) #3
20 [5250c83a] (06/19) Accurately ripped as in pressing(s) #3
21 [d0a052eb] (03/19) Accurately ripped as in pressing(s) #3
Offsetted by 87:
01 [da63a3a2] (02/19) Accurately ripped as in pressing(s) #2
02 [e021e4a5] (02/19) Accurately ripped as in pressing(s) #2
03 [db2d3545] (02/19) Accurately ripped as in pressing(s) #2
04 [7cec86e0] (02/19) Accurately ripped as in pressing(s) #2
05 [300101ea] (02/19) Accurately ripped as in pressing(s) #2
06 [b9198626] (02/19) Accurately ripped as in pressing(s) #2
07 [4376bb76] (02/18) Accurately ripped as in pressing(s) #2
08 [acfcd276] (02/19) Accurately ripped as in pressing(s) #2
09 [0a53e215] (02/19) Accurately ripped as in pressing(s) #2
10 [22bb8e06] (02/19) Accurately ripped as in pressing(s) #2
11 [9af6dcde] (02/19) Accurately ripped as in pressing(s) #2
12 [2fee9a13] (02/19) Accurately ripped as in pressing(s) #2
13 [9931b405] (02/19) Accurately ripped as in pressing(s) #2
14 [7623ecb9] (02/19) Accurately ripped as in pressing(s) #2
15 [16dbdba0] (02/19) Accurately ripped as in pressing(s) #2
16 [5023114d] (02/19) Accurately ripped as in pressing(s) #2
17 [e9c4fde9] (02/19) Accurately ripped as in pressing(s) #2
18 [155aa880] (02/19) Accurately ripped as in pressing(s) #2
19 [9ee43d6b] (02/19) Accurately ripped as in pressing(s) #2
20 [af508554] (02/19) Accurately ripped as in pressing(s) #2
21 [e4df2882] (02/19) Partial match to pressing(s) #2
Offsetted by 328:
01 [4a988000] (11/19) Accurately ripped as in pressing(s) #1
02 [61ad7e98] (11/19) Accurately ripped as in pressing(s) #1
03 [c2d72152] (11/19) Accurately ripped as in pressing(s) #1
04 [2de6b606] (11/19) Accurately ripped as in pressing(s) #1
05 [d984567e] (11/19) Accurately ripped as in pressing(s) #1
06 [f56a73e6] (11/19) Accurately ripped as in pressing(s) #1
07 [65adeafa] (10/18) Accurately ripped as in pressing(s) #1
08 [94a1e41b] (11/19) Accurately ripped as in pressing(s) #1
09 [36b69402] (11/19) Accurately ripped as in pressing(s) #1
10 [a95c2950] (11/19) Accurately ripped as in pressing(s) #1
11 [5b8546dc] (11/19) Accurately ripped as in pressing(s) #1
12 [b4a986ed] (11/19) Accurately ripped as in pressing(s) #1
13 [0b516d08] (11/19) Accurately ripped as in pressing(s) #1
14 [0766e56d] (11/19) Accurately ripped as in pressing(s) #1
15 [5da8ac06] (11/19) Accurately ripped as in pressing(s) #1
16 [bf8f6b72] (11/19) Accurately ripped as in pressing(s) #1
17 [18804f83] (11/19) Accurately ripped as in pressing(s) #1
18 [46c51971] (11/19) Accurately ripped as in pressing(s) #1
19 [d05c438c] (11/19) Accurately ripped as in pressing(s) #1
20 [4cbd9c90] (11/19) Accurately ripped as in pressing(s) #1
21 [13c73ca3] (11/19) Partial match to pressing(s) #1

Track [ CRC32 ]
-- [64EE305B]
01 [641C9E7B]
02 [22AE3AA4]
03 [E7DE7048]
04 [336828CC]
05 [36D9BD97]
06 [DD842893]
07 [338E13B6]
08 [99D54B8C]
09 [30CC81A6]
10 [1A0290B9]
11 [5E1C9285]
12 [6A85E364]
13 [36444359]
14 [6F247FB1]
15 [49414441]
16 [8C275BA0]
17 [3922EF00]
18 [894C292F]
19 [0193BEB7]
20 [0B7E292C]
21 [5C24CD4D]


Трекер:  [ 08-Июл-2011 12:12 ]

  

Скачать .torrent

Размер .torrent файла 17 KB


Размер: 194 MB
Хэш (hash) релиза: b217f6f576770c5c80de6d6488067903e5578fbe

Еще никто не оставлял запись к записи скачать торрент Thomas Newman - The Shawshank Redemption Побег из Шоушенка - 1994, FLAC . Будь первым!

!Обратная связь