Скачать через торрент музыку Дорога The Road бесплатно без регистрации torrent

Если у вас наблюдаются проблемы со скриншотами, переходом по ссылками, скачиванием торрентов - проблемы в блокировщике рекламы AdBlock. #хорошегоДня!


Статистика раздачи
Размер:  274 MB   |    Зарегистрирован:  6 лет 5 месяцев   |    .torrent скачан:  38 раз   |   
Раздают:  1  
   
Загрузка...
 
Автор Сообщение

Galfimbul

avatar Galfimbul


Дорога / The Road

Жанр: Score
Композитор: Nick Cave & Warren Ellis
Год выпуска диска: 2009
Производитель диска: USA
Аудио кодек: FLAC
Тип рипа: tracks+.cue
Битрейт аудио: lossless
Продолжительность: 00:46:38

01 - Home (02:04)
02 - The Road (03:41)
03 - Storytime (02:25)
04 - The Cannibals (02:09)
05 - Water And Ash (01:27)
06 - The Mother (02:46)
07 - The Real Thing (02:32)
08 - Memory (03:43)
09 - The House (03:16)
10 - The Far Road (02:45)
11 - The Church (01:34)
12 - The Journey (04:14)
13 - The Cellar (01:17)
14 - The Bath (02:23)
15 - The Family (03:37)
16 - The Beach (03:50)
17 - The Boy (03:09)

Источник: lztr.us
 
Exact Audio Copy V0.99 prebeta 5 from 4. May 2009

EAC extraction logfile from 18. March 2010, 11:39

Nick Cave & Warren Ellis / The Road

Used drive : HL-DT-STDVDRAM GSA-T40N Adapter: 0 ID: 0

Read mode : SecureUtilize accurate stream : YesDefeat audio cache : YesMake use of C2 pointers : No

Read offset correction : 667Overread into Lead-In and Lead-Out : NoFill up missing offset samples with silence : YesDelete leading and trailing silent blocks : NoNull samples used in CRC calculations : YesUsed interface : Installed external ASPI interfaceGap handling : Appended to previous track

Used output format : User Defined EncoderSelected bitrate : 128 kBit/sQuality : HighAdd ID3 tag : NoCommand line compressor : C:\Program Files\FLAC\flac.exeAdditional command line options : -8 -V -T "ARTIST=%a" -T "TITLE=%t" -T "ALBUM=%g" -T "DATE=%y" -T "TRACKNUMBER=%n" -T "GENRE=%m" -T "COMMENT=EAC FLAC -8" %s

TOC of the extracted CD

Track | Start | Length | Start sector | End sector --------------------------------------------------------- 1 | 0:00.00 | 2:04.09 | 0 | 9308 2 | 2:04.09 | 3:41.17 | 9309 | 25900 3 | 5:45.26 | 2:24.47 | 25901 | 36747 4 | 8:09.73 | 2:08.57 | 36748 | 46404 5 | 10:18.55 | 1:27.00 | 46405 | 52929 6 | 11:45.55 | 2:46.08 | 52930 | 65387 7 | 14:31.63 | 2:32.13 | 65388 | 76800 8 | 17:04.01 | 3:42.63 | 76801 | 93513 9 | 20:46.64 | 3:16.09 | 93514 | 108222 10 | 24:02.73 | 2:44.72 | 108223 | 120594 11 | 26:47.70 | 1:34.07 | 120595 | 127651 12 | 28:22.02 | 4:14.20 | 127652 | 146721 13 | 32:36.22 | 1:17.08 | 146722 | 152504 14 | 33:53.30 | 2:22.60 | 152505 | 163214 15 | 36:16.15 | 3:36.73 | 163215 | 179487 16 | 39:53.13 | 3:50.01 | 179488 | 196738 17 | 43:43.14 | 3:09.24 | 196739 | 210937

Track 1

Filename D:\eac\01 - Home.wav

Pre-gap length 0:00:02.00

Peak level 59.4 % Track quality 100.0 % Test CRC 200A35B7 Copy CRC 200A35B7 Cannot be verified as accurate (confidence 2) [B6B4EE28], AccurateRip returned [88ACDECC] Copy OK

Track 2

Filename D:\eac\02 - The Road.wav

Pre-gap length 0:00:06.60

Peak level 96.5 % Track quality 100.0 % Test CRC B055262C Copy CRC B055262C Cannot be verified as accurate (confidence 2) [C00C0C1C], AccurateRip returned [C34AFE23] Copy OK

Track 3

Filename D:\eac\03 - Storytime.wav

Peak level 93.8 % Track quality 100.0 % Test CRC 0DCD3A3B Copy CRC 0DCD3A3B Cannot be verified as accurate (confidence 2) [E1407545], AccurateRip returned [64436A86] Copy OK

Track 4

Filename D:\eac\04 - The Cannibals.wav

Peak level 98.8 % Track quality 100.0 % Test CRC C43D6D1E Copy CRC C43D6D1E Cannot be verified as accurate (confidence 2) [33D4C7C1], AccurateRip returned [57D24974] Copy OK

Track 5

Filename D:\eac\05 - Water And Ash.wav

Peak level 40.4 % Track quality 99.8 % Test CRC F993E5F9 Copy CRC F993E5F9 Cannot be verified as accurate (confidence 2) [1B324BDE], AccurateRip returned [A97A0CAE] Copy OK

Track 6

Filename D:\eac\06 - The Mother.wav

Peak level 84.3 % Track quality 100.0 % Test CRC 3A6E006E Copy CRC 3A6E006E Cannot be verified as accurate (confidence 2) [CA6793F1], AccurateRip returned [4A6B34D8] Copy OK

Track 7

Filename D:\eac\07 - The Real Thing.wav

Peak level 67.1 % Track quality 100.0 % Test CRC 91AE73C1 Copy CRC 91AE73C1 Cannot be verified as accurate (confidence 2) [A5591F3C], AccurateRip returned [2DFEF9F3] Copy OK

Track 8

Filename D:\eac\08 - Memory.wav

Peak level 90.7 % Track quality 99.9 % Test CRC 40C539F6 Copy CRC 40C539F6 Cannot be verified as accurate (confidence 2) [6661CD4B], AccurateRip returned [E663EDA5] Copy OK

Track 9

Filename D:\eac\09 - The House.wav

Peak level 98.8 % Track quality 100.0 % Test CRC 0E75DC04 Copy CRC 0E75DC04 Cannot be verified as accurate (confidence 2) [5FFC4B7C], AccurateRip returned [3F90FDE6] Copy OK

Track 10

Filename D:\eac\10 - The Far Road.wav

Peak level 79.0 % Track quality 100.0 % Test CRC BBF15F5B Copy CRC BBF15F5B Cannot be verified as accurate (confidence 2) [DBE5ACD5], AccurateRip returned [828EAD97] Copy OK

Track 11

Filename D:\eac\11 - The Church.wav

Peak level 73.0 % Track quality 100.0 % Test CRC 2459956E Copy CRC 2459956E Cannot be verified as accurate (confidence 2) [3BDC8633], AccurateRip returned [07D6304E] Copy OK

Track 12

Filename D:\eac\12 - The Journey.wav

Peak level 98.8 % Track quality 100.0 % Test CRC 3E727392 Copy CRC 3E727392 Cannot be verified as accurate (confidence 2) [23E798EA], AccurateRip returned [2F254BE0] Copy OK

Track 13

Filename D:\eac\13 - The Cellar.wav

Peak level 98.8 % Track quality 100.0 % Test CRC 4359F6FD Copy CRC 4359F6FD Cannot be verified as accurate (confidence 2) [F061D57D], AccurateRip returned [E68464D2] Copy OK

Track 14

Filename D:\eac\14 - The Bath.wav

Peak level 92.2 % Track quality 99.9 % Test CRC 7F83072D Copy CRC 7F83072D Cannot be verified as accurate (confidence 2) [A0EB561B], AccurateRip returned [0D114884] Copy OK

Track 15

Filename D:\eac\15 - The Family.wav

Pre-gap length 0:00:01.08

Peak level 83.8 % Track quality 100.0 % Test CRC 40129395 Copy CRC 40129395 Cannot be verified as accurate (confidence 2) [C36F7F0F], AccurateRip returned [D1CA4E61] Copy OK

Track 16

Filename D:\eac\16 - The Beach.wav

Peak level 86.4 % Track quality 100.0 % Test CRC A0ADF572 Copy CRC A0ADF572 Cannot be verified as accurate (confidence 2) [DAEBA702], AccurateRip returned [C6049F52] Copy OK

Track 17

Filename D:\eac\17 - The Boy.wav

Pre-gap length 0:00:06.13

Peak level 57.1 % Track quality 100.0 % Test CRC AB770A45 Copy CRC AB770A45 Cannot be verified as accurate (confidence 2) [5E0C0318], AccurateRip returned [2B4F1956] Copy OK

No tracks could be verified as accurateYou may have a different pressing from the one(s) in the database

No errors occurred

End of status report
 
REM GENRE SoundtrackREM DATE 2009REM DISCID E50AFC11REM COMMENT "ExactAudioCopy v0.99pb5"PERFORMER "Nick Cave & Warren Ellis"TITLE "The Road"FILE "01 - Home.wav" WAVE TRACK 01 AUDIO TITLE "Home" PERFORMER "Nick Cave & Warren Ellis" FLAGS DCP INDEX 01 00:00:00 TRACK 02 AUDIO TITLE "The Road" PERFORMER "Nick Cave & Warren Ellis" FLAGS DCP INDEX 00 01:57:39FILE "02 - The Road.wav" WAVE INDEX 01 00:00:00FILE "03 - Storytime.wav" WAVE TRACK 03 AUDIO TITLE "Storytime" PERFORMER "Nick Cave & Warren Ellis" FLAGS DCP INDEX 01 00:00:00FILE "04 - The Cannibals.wav" WAVE TRACK 04 AUDIO TITLE "The Cannibals" PERFORMER "Nick Cave & Warren Ellis" FLAGS DCP INDEX 01 00:00:00FILE "05 - Water And Ash.wav" WAVE TRACK 05 AUDIO TITLE "Water And Ash" PERFORMER "Nick Cave & Warren Ellis" FLAGS DCP INDEX 01 00:00:00FILE "06 - The Mother.wav" WAVE TRACK 06 AUDIO TITLE "The Mother" PERFORMER "Nick Cave & Warren Ellis" FLAGS DCP INDEX 01 00:00:00FILE "07 - The Real Thing.wav" WAVE TRACK 07 AUDIO TITLE "The Real Thing" PERFORMER "Nick Cave & Warren Ellis" FLAGS DCP INDEX 01 00:00:00FILE "08 - Memory.wav" WAVE TRACK 08 AUDIO TITLE "Memory" PERFORMER "Nick Cave & Warren Ellis" FLAGS DCP INDEX 01 00:00:00FILE "09 - The House.wav" WAVE TRACK 09 AUDIO TITLE "The House" PERFORMER "Nick Cave & Warren Ellis" FLAGS DCP INDEX 01 00:00:00FILE "10 - The Far Road.wav" WAVE TRACK 10 AUDIO TITLE "The Far Road" PERFORMER "Nick Cave & Warren Ellis" FLAGS DCP INDEX 01 00:00:00FILE "11 - The Church.wav" WAVE TRACK 11 AUDIO TITLE "The Church" PERFORMER "Nick Cave & Warren Ellis" FLAGS DCP INDEX 01 00:00:00FILE "12 - The Journey.wav" WAVE TRACK 12 AUDIO TITLE "The Journey" PERFORMER "Nick Cave & Warren Ellis" FLAGS DCP INDEX 01 00:00:00FILE "13 - The Cellar.wav" WAVE TRACK 13 AUDIO TITLE "The Cellar" PERFORMER "Nick Cave & Warren Ellis" FLAGS DCP INDEX 01 00:00:00FILE "14 - The Bath.wav" WAVE TRACK 14 AUDIO TITLE "The Bath" PERFORMER "Nick Cave & Warren Ellis" FLAGS DCP INDEX 01 00:00:00 TRACK 15 AUDIO TITLE "The Family" PERFORMER "Nick Cave & Warren Ellis" FLAGS DCP INDEX 00 02:21:54FILE "15 - The Family.wav" WAVE INDEX 01 00:00:00FILE "16 - The Beach.wav" WAVE TRACK 16 AUDIO TITLE "The Beach" PERFORMER "Nick Cave & Warren Ellis" FLAGS DCP INDEX 01 00:00:00 TRACK 17 AUDIO TITLE "The Boy" PERFORMER "Nick Cave & Warren Ellis" FLAGS DCP INDEX 00 03:43:66FILE "17 - The Boy.wav" WAVE INDEX 01 00:00:00



Трекер:  [ 08-Июл-2011 12:11 ]

  

Скачать .torrent

Размер .torrent файла 12 KB


Размер: 274 MB
Хэш (hash) релиза: 37db2cd23c971bbbb4f2cd9c37f187eb40f4fe41

Еще никто не оставлял запись к записи скачать торрент Дорога The Road . Будь первым!

!Обратная связь