Скачать через торрент музыку Маска The Mask бесплатно без регистрации torrent

Если у вас наблюдаются проблемы со скриншотами, переходом по ссылками, скачиванием торрентов - проблемы в блокировщике рекламы AdBlock. #хорошегоДня!


Статистика раздачи
Размер:  178 MB   |    Зарегистрирован:  6 лет 5 месяцев   |    .torrent скачан:  58 раз   |   
Раздают:  1  
   
Загрузка...
 
Автор Сообщение

Galfimbul

avatar Galfimbul


Маска / The Mask

Жанр: Score
Композитор: Randy Edelman
Год выпуска диска: 1994
Производитель диска: USA
Аудио кодек: FLAC
Тип рипа: tracks+.cue
Битрейт аудио: lossless
Продолжительность: 00:34:55

01 - Opening - The Origin of the Mask (03:20)
02 - Tina (02:00)
03 - Carnival (02:19)
04 - Transformation (02:18)
05 - Tango in the Park (02:11)
06 - Lovebirds (02:43)
07 - Out of the Line of Fire (02:09)
08 - A Dark Night (02:18)
09 - The Man Behind the Mask (02:01)
10 - Dorian Gets a New Face (03:05)
11 - Looking for a Way Out (01:38)
12 - The Search (01:08)
13 - Forked Tongue (01:49)
14 - Milo to the Rescue (02:44)
15 - The Mask is Back (02:18)
16 - Finale (01:47)

Источник: what.cd
 
Exact Audio Copy V0.99 prebeta 4 from 23. January 2008

EAC extraction logfile from 7. June 2008, 6:28

Randy Edelman / The Mask

Used drive : TSSTcorpDVD-ROM TS-H352C Adapter: 1 ID: 1

Read mode : SecureUtilize accurate stream : YesDefeat audio cache : YesMake use of C2 pointers : No

Read offset correction : 6Overread into Lead-In and Lead-Out : NoFill up missing offset samples with silence : YesDelete leading and trailing silent blocks : NoNull samples used in CRC calculations : YesUsed interface : Installed external ASPI interfaceGap handling : Appended to previous track

Used output format : User Defined EncoderSelected bitrate : 192 kBit/sQuality : HighAdd ID3 tag : NoCommand line compressor : C:\Program Files\TotalAudioConverter\flac.exeAdditional command line options : -8 -A tukey(0.25) -A gauss(0.1875) -b 4096 -V -T "artist=%a" -T "title=%t" -T "album=%g" -T "date=%y" -T "tracknumber=%n" -T "genre=%m" %s --sector-align

TOC of the extracted CD

Track | Start | Length | Start sector | End sector --------------------------------------------------------- 1 | 0:00.00 | 3:20.33 | 0 | 15032 2 | 3:20.33 | 1:59.57 | 15033 | 24014 3 | 5:20.15 | 2:19.15 | 24015 | 34454 4 | 7:39.30 | 2:17.68 | 34455 | 44797 5 | 9:57.23 | 2:10.45 | 44798 | 54592 6 | 12:07.68 | 2:43.00 | 54593 | 66817 7 | 14:50.68 | 2:08.40 | 66818 | 76457 8 | 16:59.33 | 2:18.35 | 76458 | 86842 9 | 19:17.68 | 2:00.52 | 86843 | 95894 10 | 21:18.45 | 3:04.58 | 95895 | 109752 11 | 24:23.28 | 1:37.40 | 109753 | 117067 12 | 26:00.68 | 1:08.15 | 117068 | 122182 13 | 27:09.08 | 1:48.70 | 122183 | 130352 14 | 28:58.03 | 2:43.57 | 130353 | 142634 15 | 31:41.60 | 2:18.30 | 142635 | 153014 16 | 34:00.15 | 1:47.05 | 153015 | 161044

Track 1

Filename N:\Music\The Mask [Score]\01 - Opening - The Origin of the Mask.wav

Pre-gap length 0:00:02.00

Peak level 92.2 % Track quality 100.0 % Test CRC E928A651 Copy CRC E928A651 Copy OK

Track 2

Filename N:\Music\The Mask [Score]\02 - Tina.wav

Pre-gap length 0:00:04.53

Peak level 62.7 % Track quality 100.0 % Test CRC 4DC80D39 Copy CRC 4DC80D39 Copy OK

Track 3

Filename N:\Music\The Mask [Score]\03 - Carnival.wav

Pre-gap length 0:00:02.22

Peak level 65.3 % Track quality 100.0 % Test CRC 28B24599 Copy CRC 28B24599 Copy OK

Track 4

Filename N:\Music\The Mask [Score]\04 - Transformation.wav

Pre-gap length 0:00:03.20

Peak level 75.8 % Track quality 100.0 % Test CRC 3C9CA632 Copy CRC 3C9CA632 Copy OK

Track 5

Filename N:\Music\The Mask [Score]\05 - Tango in the Park.wav

Pre-gap length 0:00:03.93

Peak level 86.5 % Track quality 100.0 % Test CRC 429EB9DC Copy CRC 429EB9DC Copy OK

Track 6

Filename N:\Music\The Mask [Score]\06 - Lovebirds.wav

Pre-gap length 0:00:04.06

Peak level 50.4 % Track quality 100.0 % Test CRC CF69008B Copy CRC CF69008B Copy OK

Track 7

Filename N:\Music\The Mask [Score]\07 - Out of the Line of Fire.wav

Pre-gap length 0:00:03.73

Peak level 66.4 % Track quality 100.0 % Test CRC 11F91730 Copy CRC 11F91730 Copy OK

Track 8

Filename N:\Music\The Mask [Score]\08 - A Dark Night.wav

Pre-gap length 0:00:03.53

Peak level 70.7 % Track quality 99.9 % Test CRC 1FF464AC Copy CRC 1FF464AC Copy OK

Track 9

Filename N:\Music\The Mask [Score]\09 - The Man Behind the Mask.wav

Pre-gap length 0:00:03.30

Peak level 56.1 % Track quality 100.0 % Test CRC 9012E6C1 Copy CRC 9012E6C1 Copy OK

Track 10

Filename N:\Music\The Mask [Score]\10 - Dorian Gets a New Face.wav

Pre-gap length 0:00:03.09

Peak level 76.9 % Track quality 100.0 % Test CRC 40962253 Copy CRC 40962253 Copy OK

Track 11

Filename N:\Music\The Mask [Score]\11 - Looking for a Way Out.wav

Pre-gap length 0:00:03.77

Peak level 67.0 % Track quality 100.0 % Test CRC 2B2578B3 Copy CRC 2B2578B3 Copy OK

Track 12

Filename N:\Music\The Mask [Score]\12 - The Search.wav

Pre-gap length 0:00:02.00

Peak level 63.1 % Track quality 100.0 % Test CRC 324EEDFF Copy CRC 324EEDFF Copy OK

Track 13

Filename N:\Music\The Mask [Score]\13 - Forked Tongue.wav

Pre-gap length 0:00:03.97

Peak level 65.1 % Track quality 99.9 % Test CRC 8A37AB68 Copy CRC 8A37AB68 Copy OK

Track 14

Filename N:\Music\The Mask [Score]\14 - Milo to the Rescue.wav

Pre-gap length 0:00:04.26

Peak level 71.8 % Track quality 100.0 % Test CRC 9F42D795 Copy CRC 9F42D795 Copy OK

Track 15

Filename N:\Music\The Mask [Score]\15 - The Mask is Back.wav

Pre-gap length 0:00:03.13

Peak level 63.2 % Track quality 100.0 % Test CRC 73DDCBFA Copy CRC 73DDCBFA Copy OK

Track 16

Filename N:\Music\The Mask [Score]\16 - Finale.wav

Pre-gap length 0:00:03.33

Peak level 76.2 % Track quality 100.0 % Test CRC BB5A8A98 Copy CRC BB5A8A98 Copy OK

No errors occurred

End of status report
 
REM DISCID BD086310REM COMMENT "ExactAudioCopy v0.99pb4"PERFORMER "Randy Edelman"TITLE "The Mask"FILE "01 - Opening - The Origin of the Mask.wav" WAVE TRACK 01 AUDIO TITLE "Opening - The Origin of the Mask" PERFORMER "Randy Edelman" INDEX 01 00:00:00 TRACK 02 AUDIO TITLE "Tina" PERFORMER "Randy Edelman" INDEX 00 03:15:68FILE "02 - Tina.wav" WAVE INDEX 01 00:00:00 TRACK 03 AUDIO TITLE "Carnival" PERFORMER "Randy Edelman" INDEX 00 01:57:40FILE "03 - Carnival.wav" WAVE INDEX 01 00:00:00 TRACK 04 AUDIO TITLE "Transformation" PERFORMER "Randy Edelman" INDEX 00 02:16:00FILE "04 - Transformation.wav" WAVE INDEX 01 00:00:00 TRACK 05 AUDIO TITLE "Tango in the Park" PERFORMER "Randy Edelman" INDEX 00 02:13:73FILE "05 - Tango in the Park.wav" WAVE INDEX 01 00:00:00 TRACK 06 AUDIO TITLE "Lovebirds" PERFORMER "Randy Edelman" INDEX 00 02:06:40FILE "06 - Lovebirds.wav" WAVE INDEX 01 00:00:00 TRACK 07 AUDIO TITLE "Out of the Line of Fire" PERFORMER "Randy Edelman" INDEX 00 02:39:20FILE "07 - Out of the Line of Fire.wav" WAVE INDEX 01 00:00:00 TRACK 08 AUDIO TITLE "A Dark Night" PERFORMER "Randy Edelman" INDEX 00 02:05:00FILE "08 - A Dark Night.wav" WAVE INDEX 01 00:00:00 TRACK 09 AUDIO TITLE "The Man Behind the Mask" PERFORMER "Randy Edelman" INDEX 00 02:15:12FILE "09 - The Man Behind the Mask.wav" WAVE INDEX 01 00:00:00 TRACK 10 AUDIO TITLE "Dorian Gets a New Face" PERFORMER "Randy Edelman" INDEX 00 01:57:45FILE "10 - Dorian Gets a New Face.wav" WAVE INDEX 01 00:00:00 TRACK 11 AUDIO TITLE "Looking for a Way Out" PERFORMER "Randy Edelman" INDEX 00 03:01:00FILE "11 - Looking for a Way Out.wav" WAVE INDEX 01 00:00:00 TRACK 12 AUDIO TITLE "The Search" PERFORMER "Randy Edelman" INDEX 00 01:35:40FILE "12 - The Search.wav" WAVE INDEX 01 00:00:00 TRACK 13 AUDIO TITLE "Forked Tongue" PERFORMER "Randy Edelman" INDEX 00 01:04:17FILE "13 - Forked Tongue.wav" WAVE INDEX 01 00:00:00 TRACK 14 AUDIO TITLE "Milo to the Rescue" PERFORMER "Randy Edelman" INDEX 00 01:44:50FILE "14 - Milo to the Rescue.wav" WAVE INDEX 01 00:00:00 TRACK 15 AUDIO TITLE "The Mask is Back" PERFORMER "Randy Edelman" INDEX 00 02:40:47FILE "15 - The Mask is Back.wav" WAVE INDEX 01 00:00:00 TRACK 16 AUDIO TITLE "Finale" PERFORMER "Randy Edelman" INDEX 00 02:15:05FILE "16 - Finale.wav" WAVE INDEX 01 00:00:00



Трекер:  [ 08-Июл-2011 12:11 ]

  

Скачать .torrent

Размер .torrent файла 15 KB


Размер: 178 MB
Хэш (hash) релиза: 9b8b4e8b8a4152d82f01934e9e076f8f322e9524

Торренты, похожие на Маска The Mask скачать торрент

Форум Название Автор Размер S L Добавлен
Саундтреки к фильмам и мультфильмам (mp3) ·· (Soundtrack) Маска / The Mask - 1994, MP3, 320 kbps Phoenix 10010317895 MB 0 0 1292265132

21:32

13-Дек-10

Саундтреки к фильмам и мультфильмам (lossless) ·· (Score) Человек в железной маске / The Man in the Iron Mask (by Nick Glennie-Smith) - 1998, FLAC (tracks+.cue), lossless uzi2009 305115583291 MB 0 0 1326393202

21:33

12-Янв-12

Саундтреки к фильмам и мультфильмам (mp3) ·· (Score) Человек в железной маске / The Man In The Iron Mask (Nick Glennie-Smith) - 1998, MP3, 320 kbps Phoenix 121389097116 MB 0 0 1292268215

22:23

13-Дек-10

Саундтреки к фильмам и мультфильмам (lossless) ·· (Score) Маска Зорро / The Mask Of Zorro (James Horner) - 1998, FLAC (image +.cue), lossless Mos 350881549335 MB 0 0 1292270629

23:03

13-Дек-10

Саундтреки к фильмам и мультфильмам (mp3) ·· (Score) Маска Зорро / The Mask Of Zorro (James Horner) - 1998 [MP3 320 kbps] Sabin 182388660174 MB 0 0 1292265869

21:44

13-Дек-10

Саундтреки к фильмам и мультфильмам (mp3) ·· (Score) The Mask / Маска (Randy Edelman) - 1994, MP3 (tracks), 320 kbps Galfimbul 8592547082 MB 0 0 1292265602

21:40

13-Дек-10

Саундтреки к фильмам и мультфильмам (lossless) ·· (Score) Бэтмен: Маска Фантазма / Batman: Mask of the Phantasm (by Shirley Walker) - 1993-2009, FLAC (tracks+.cue), lossless Galfimbul 540574962516 MB 0 0 1492698989

17:36

20-Апр-17

Саундтреки ·· (Score) Восковая маска / M.D.C. - Maschera Di Cera / The Wax Mask [Collector's Limited Edition] (by Maurizio Abeni) - 1997, FLAC (tracks), lossless Umakiro 345707522330 MB 0 0 1340106900

14:55

19-Июн-12

Еще никто не оставлял запись к записи скачать торрент Маска The Mask . Будь первым!

!Обратная связь