Скачать через торрент музыку Lethal Weapon Смертельное оружие бесплатно без регистрации torrent

Если у вас наблюдаются проблемы со скриншотами, переходом по ссылками, скачиванием торрентов - проблемы в блокировщике рекламы AdBlock. #хорошегоДня!


Статистика раздачи
Размер:  359 MB   |    Зарегистрирован:  6 лет 5 месяцев   |    .torrent скачан:  43 раза   |   
Раздают:  1  
   
Загрузка...
 
Автор Сообщение

Galfimbul

avatar Galfimbul


Lethal Weapon / Смертельное оружие
Жанр: Score
Год выпуска диска: 2002
Производитель диска: USA
Аудио кодек: FLAC
Тип рипа: tracks+.cue
Битрейт аудио: lossless
Продолжительность: 1:04:47

Трэклист:

1. Meet Martin Riggs
2. Amanda
3. Suicide Attempt
4. The Jumper / Rog & Riggs Confrontation
5. Roger
6. Coke Deal
7. Mr. Joshua
8. They Got My Daughter
9. The Desert
10. We're Getting To Old For This
11. Hollywood Blvd Chase
12. The General's Car
13. SOB Knows Where I Live - Orchestral version
14. Yard Fight / Graveside
15. The Weapon
16. Nightclub
17. Lethal Weapon

Источник: Интернет
EAC extraction logfile from 25. June 2007, 19:16 for CD
Michael Kamen / Lethal Weapon (Limited Edition)

Used drive : Pioneer DVD-RW DVR-K17RS Adapter: 4 ID: 0

Read mode : Secure
Utilize accurate stream : Yes
Defeat audio cache : Yes
Make use of C2 pointers : No

Read offset correction : 48
Overread into Lead-In and Lead-Out : No
Fill up missing offset samples with silence : Yes
Delete leading and trailing silent blocks : No
Null samples used in CRC calculations : Yes
Used interface : Installed external ASPI interface
Gap handling : Appended to previous track

Used output format : User Defined Encoder
Selected bitrate : 192 kBit/s
Quality : High
Add ID3 tag : No
Command line compressor : C:\Program Files\TotalAudioConverter\flac.exe
Additional command line options : -8 -A tukey(0.25) -A gauss(0.1875) -b 4096 -V -T "artist=%a" -T "title=%t" -T "album=%g" -T "date=%y" -T "tracknumber=%n" -T "genre=%m" %s --sector-align

Track 1
Filename D:\Music\Lossless Rips\Movie\Lethal Weapon\01 - Michael Kamen - Meet Martin Riggs.wav

Pre-gap length 0:00:02.00

Peak level 77.8 %
Track quality 100.0 %
Test CRC 9C4F5842
Copy CRC 9C4F5842
Copy OK

Track 2
Filename D:\Music\Lossless Rips\Movie\Lethal Weapon\02 - Michael Kamen - Amanda.wav

Pre-gap length 0:00:03.00

Peak level 70.0 %
Track quality 100.0 %
Test CRC 633BD070
Copy CRC 633BD070
Copy OK

Track 3
Filename D:\Music\Lossless Rips\Movie\Lethal Weapon\03 - Michael Kamen - Suicide Attempt.wav

Pre-gap length 0:00:03.00

Peak level 97.1 %
Track quality 100.0 %
Test CRC ABD83838
Copy CRC ABD83838
Copy OK

Track 4
Filename D:\Music\Lossless Rips\Movie\Lethal Weapon\04 - Michael Kamen - The Jumper,Rog & Riggs Confrontation.wav

Pre-gap length 0:00:03.00

Peak level 97.0 %
Track quality 100.0 %
Test CRC C482E675
Copy CRC C482E675
Copy OK

Track 5
Filename D:\Music\Lossless Rips\Movie\Lethal Weapon\05 - Michael Kamen - Roger.wav

Pre-gap length 0:00:03.00

Peak level 90.6 %
Track quality 100.0 %
Test CRC E8AC8120
Copy CRC E8AC8120
Copy OK

Track 6
Filename D:\Music\Lossless Rips\Movie\Lethal Weapon\06 - Michael Kamen - Coke Deal.wav

Pre-gap length 0:00:03.00

Peak level 95.9 %
Track quality 100.0 %
Test CRC 71C1F151
Copy CRC 71C1F151
Copy OK

Track 7
Filename D:\Music\Lossless Rips\Movie\Lethal Weapon\07 - Michael Kamen - Mr. Joshua.wav

Pre-gap length 0:00:03.00

Peak level 99.3 %
Track quality 100.0 %
Test CRC 8E94B481
Copy CRC 8E94B481
Copy OK

Track 8
Filename D:\Music\Lossless Rips\Movie\Lethal Weapon\08 - Michael Kamen - They Got My Daughter.wav

Pre-gap length 0:00:03.00

Peak level 79.1 %
Track quality 100.0 %
Test CRC 158C557B
Copy CRC 158C557B
Copy OK

Track 9
Filename D:\Music\Lossless Rips\Movie\Lethal Weapon\09 - Michael Kamen - The Desert.wav

Pre-gap length 0:00:03.00

Peak level 97.2 %
Track quality 100.0 %
Test CRC 71CA29C8
Copy CRC 71CA29C8
Copy OK

Track 10
Filename D:\Music\Lossless Rips\Movie\Lethal Weapon\10 - Michael Kamen - We're Getting To For This.wav

Pre-gap length 0:00:03.00

Peak level 81.0 %
Track quality 100.0 %
Test CRC C1D7DB8E
Copy CRC C1D7DB8E
Copy OK

Track 11
Filename D:\Music\Lossless Rips\Movie\Lethal Weapon\11 - Michael Kamen - Hollywood Blvd Chase.wav

Pre-gap length 0:00:03.00

Peak level 98.3 %
Track quality 100.0 %
Test CRC 10E7123E
Copy CRC 10E7123E
Copy OK

Track 12
Filename D:\Music\Lossless Rips\Movie\Lethal Weapon\12 - Michael Kamen - The General's Car.wav

Pre-gap length 0:00:03.00

Peak level 98.8 %
Track quality 100.0 %
Test CRC FE1BCF50
Copy CRC FE1BCF50
Copy OK

Track 13
Filename D:\Music\Lossless Rips\Movie\Lethal Weapon\13 - Michael Kamen - SOB Knows Where I Live.wav

Pre-gap length 0:00:03.00

Peak level 91.7 %
Track quality 99.8 %
Test CRC B48EF45F
Copy CRC B48EF45F
Copy OK

Track 14
Filename D:\Music\Lossless Rips\Movie\Lethal Weapon\14 - Michael Kamen - Yard Fight ~ Graveside.wav

Pre-gap length 0:00:03.00

Peak level 99.4 %
Track quality 100.0 %
Test CRC 508B1DB1
Copy CRC 508B1DB1
Copy OK

Track 15
Filename D:\Music\Lossless Rips\Movie\Lethal Weapon\15 - Michael Kamen - The Weapon.wav

Pre-gap length 0:00:03.00

Peak level 94.8 %
Track quality 100.0 %
Test CRC 3FB7486E
Copy CRC 3FB7486E
Copy OK

Track 16
Filename D:\Music\Lossless Rips\Movie\Lethal Weapon\16 - Michael Kamen - Nightclub.wav

Pre-gap length 0:00:03.00

Peak level 74.6 %
Track quality 100.0 %
Test CRC 969A9362
Copy CRC 969A9362
Copy OK

Track 17
Filename D:\Music\Lossless Rips\Movie\Lethal Weapon\17 - Michael Kamen - Lethal Weapon.wav

Pre-gap length 0:00:03.00

Peak level 92.9 %
Track quality 100.0 %
Test CRC CC845282
Copy CRC CC845282
Copy OK

No errors occured

End of status report


Трекер:  [ 08-Июл-2011 12:10 ]

  

Скачать .torrent

Размер .torrent файла 16 KB


Размер: 359 MB
Хэш (hash) релиза: 4a507f75ad84059366e564cce412cc3775e4cd15

Еще никто не оставлял запись к записи скачать торрент Lethal Weapon Смертельное оружие . Будь первым!

!Обратная связь