Скачать через торрент музыку La Bamba бесплатно без регистрации torrent

Если у вас наблюдаются проблемы со скриншотами, переходом по ссылками, скачиванием торрентов - проблемы в блокировщике рекламы AdBlock. #хорошегоДня!


Статистика раздачи
Размер:  186 MB   |    Зарегистрирован:  6 лет 5 месяцев   |    .torrent скачан:  59 раз   |   
Раздают:  1  
   
Загрузка...
 
Автор Сообщение

Galfimbul

avatar Galfimbul


La Bamba — Original Motion Picture Soundtrack

Жанр: Soundtrack / Classic Rock / Rockabilly
Год выпуска диска: 1999 (данный CD; оригинальный релиз — 1987)
Производитель диска: Germany (London Records для Warner Music Mexico, 6-3984-28226-2-6)
Аудио кодек: FLAC
Тип рипа: tracks+.cue
Битрейт аудио: lossless
Продолжительность: 31:16

Трэклист:
01.
Los Lobos — La Bamba (Traditional; Arranged & Adapted by Ritchie Valens) 2:55
02.
Los Lobos — Come On, Let's Go (Ritchie Valens) 2:02
03.
Los Lobos — Ooh! My Head (Ritchie Valens) 1:44
04.
Los Lobos — We Belong Together (S. Weiss / R. Carr & J. Mitchell) 2:02
05.
Los Lobos — Framed (Jerry Leiber & Mike Stoller) 2:35
06.
Los Lobos — Donna (Ritchie Valens) 2:20
07.
Howard Huntsberry — Lonely Teardrops (Berry Gordy / Tyran Carlo & Gwen Gordy) 3:29
08.
Marshall Crenshaw — Crying, Waiting, Hoping (Buddy Holly) 2:22
09.
Brian Setzer — Summertime Blues (Eddie Cochran & Jerry Capehard) 2:43
10.
Bo Diddley — Who Do You Love (E. McDaniel) 3:04
11.
Los Lobos — Charlena (Herman B. Chaney & Manuel G. Chanez) 2:47
12.
Los Lobos — Goodnight My Love (George Motala & John Marascalco) 3:14

Релиз скачан с другого трекера у vedderito, и кроме некоторой оптимизации сканов, в файлы не вносилось никаких изменений.
 
Exact Audio Copy V0.99 prebeta 5 from 4. May 2009

EAC extraction logfile from 26. May 2009, 23:26

Various / La Bamba

Used drive : TOSHIBA DVD-ROM SD-M1612 Adapter: 1 ID: 0

Read mode : SecureUtilize accurate stream : YesDefeat audio cache : YesMake use of C2 pointers : No

Read offset correction : -472Overread into Lead-In and Lead-Out : NoFill up missing offset samples with silence : YesDelete leading and trailing silent blocks : NoNull samples used in CRC calculations : YesUsed interface : Native Win32 interface for Win NT & 2000Gap handling : Appended to previous track

Used output format : User Defined EncoderSelected bitrate : 128 kBit/sQuality : HighAdd ID3 tag : NoCommand line compressor : C:\Archivos de programa\Exact Audio Copy\Flac\flac.exeAdditional command line options : -V -8 -T "artist=%a" -T "title=%t" -T "album=%g" -T "date=%y" -T "tracknumber=%n" -T "genre=%m" %s

TOC of the extracted CD

Track | Start | Length | Start sector | End sector --------------------------------------------------------- 1 | 0:00.00 | 2:55.20 | 0 | 13144 2 | 2:55.20 | 2:01.62 | 13145 | 22281 3 | 4:57.07 | 1:44.33 | 22282 | 30114 4 | 6:41.40 | 2:01.45 | 30115 | 39234 5 | 8:43.10 | 2:35.05 | 39235 | 50864 6 | 11:18.15 | 2:20.02 | 50865 | 61366 7 | 13:38.17 | 3:29.10 | 61367 | 77051 8 | 17:07.27 | 2:21.50 | 77052 | 87676 9 | 19:29.02 | 2:42.55 | 87677 | 99881 10 | 22:11.57 | 3:04.15 | 99882 | 113696 11 | 25:15.72 | 2:47.15 | 113697 | 126236 12 | 28:03.12 | 3:13.45 | 126237 | 140756

Track 1

Filename C:\Documents and Settings\Propietario\Escritorio\La Bamba EAC Rip\01 - Los Lobos - La Bamba.wav

Pre-gap length 0:00:02.00

Peak level 92.8 % Track quality 99.9 % Test CRC 3EE1E280 Copy CRC 3EE1E280 Track not present in AccurateRip database Copy OK

Track 2

Filename C:\Documents and Settings\Propietario\Escritorio\La Bamba EAC Rip\02 - Los Lobos - Come On, Let's Go.wav

Pre-gap length 0:00:00.53

Peak level 100.0 % Track quality 100.0 % Test CRC 09D053D7 Copy CRC 09D053D7 Track not present in AccurateRip database Copy OK

Track 3

Filename C:\Documents and Settings\Propietario\Escritorio\La Bamba EAC Rip\03 - Los Lobos - Ooh! My Head.wav

Pre-gap length 0:00:00.93

Peak level 100.0 % Track quality 100.0 % Test CRC 07631274 Copy CRC 07631274 Track not present in AccurateRip database Copy OK

Track 4

Filename C:\Documents and Settings\Propietario\Escritorio\La Bamba EAC Rip\04 - Los Lobos - We Belong Together.wav

Pre-gap length 0:00:00.13

Peak level 72.5 % Track quality 100.0 % Test CRC 766C35DF Copy CRC 766C35DF Track not present in AccurateRip database Copy OK

Track 5

Filename C:\Documents and Settings\Propietario\Escritorio\La Bamba EAC Rip\05 - Los Lobos - Framed.wav

Pre-gap length 0:00:01.24

Peak level 100.0 % Track quality 99.9 % Test CRC 8953605A Copy CRC 8953605A Track not present in AccurateRip database Copy OK

Track 6

Filename C:\Documents and Settings\Propietario\Escritorio\La Bamba EAC Rip\06 - Los Lobos - Donna.wav

Pre-gap length 0:00:00.64

Peak level 80.6 % Track quality 100.0 % Test CRC EA121B0C Copy CRC EA121B0C Track not present in AccurateRip database Copy OK

Track 7

Filename C:\Documents and Settings\Propietario\Escritorio\La Bamba EAC Rip\07 - Howard Huntsberry - Lonely Teardrops.wav

Pre-gap length 0:00:01.16

Peak level 77.4 % Track quality 100.0 % Test CRC 9C32864F Copy CRC 9C32864F Track not present in AccurateRip database Copy OK

Track 8

Filename C:\Documents and Settings\Propietario\Escritorio\La Bamba EAC Rip\08 - Marshall Crenshaw - Crying, Waiting, Hoping.wav

Pre-gap length 0:00:00.76

Peak level 96.3 % Track quality 100.0 % Test CRC 9BECEFFD Copy CRC 9BECEFFD Track not present in AccurateRip database Copy OK

Track 9

Filename C:\Documents and Settings\Propietario\Escritorio\La Bamba EAC Rip\09 - Brian Setzer - Summertime Blues.wav

Pre-gap length 0:00:00.20

Peak level 89.0 % Track quality 100.0 % Test CRC 67916BBC Copy CRC 67916BBC Track not present in AccurateRip database Copy OK

Track 10

Filename C:\Documents and Settings\Propietario\Escritorio\La Bamba EAC Rip\10 - Bo Diddley - Who Do You Love.wav

Pre-gap length 0:00:01.09

Peak level 70.4 % Track quality 100.0 % Test CRC 105B5E1D Copy CRC 105B5E1D Track not present in AccurateRip database Copy OK

Track 11

Filename C:\Documents and Settings\Propietario\Escritorio\La Bamba EAC Rip\11 - Los Lobos - Charlena.wav

Pre-gap length 0:00:02.40

Peak level 81.1 % Track quality 100.0 % Test CRC 515618C9 Copy CRC 515618C9 Track not present in AccurateRip database Copy OK

Track 12

Filename C:\Documents and Settings\Propietario\Escritorio\La Bamba EAC Rip\12 - Los Lobos - Goodnight My Love.wav

Pre-gap length 0:00:01.93

Peak level 78.0 % Track quality 99.9 % Test CRC 8652DBE9 Copy CRC 8652DBE9 Track not present in AccurateRip database Copy OK

None of the tracks are present in the AccurateRip database

No errors occurred

End of status report
 
AUDIOCHECKER v2.0 beta (build 457) - by Dester - opdester@freemail.hu~~~~~~~~~~~~~~~~~~~~~~~~~~~~~~~~~~-=== DO NOT EDIT THIS FILE! ===-

Path: ...\La Bamba OST (Los Lobos - Brian Setzer - VA) (1987)

01 -=- 01 - Los Lobos - La Bamba.flac -=- CDDA (100%)02 -=- 02 - Los Lobos - Come On, Let's Go.flac -=- MPEG (95%)03 -=- 03 - Los Lobos - Ooh! My Head.flac -=- CDDA (100%)04 -=- 04 - Los Lobos - We Belong Together.flac -=- CDDA (100%)05 -=- 05 - Los Lobos - Framed.flac -=- CDDA (100%)06 -=- 06 - Los Lobos - Donna.flac -=- CDDA (100%)07 -=- 07 - Howard Huntsberry - Lonely Teardrops.flac -=- MPEG (95%)08 -=- 08 - Marshall Crenshaw - Crying, Waiting, Hoping.flac -=- CDDA (99%)09 -=- 09 - Brian Setzer - Summertime Blues.flac -=- CDDA (100%)10 -=- 10 - Bo Diddley - Who Do You Love.flac -=- CDDA (100%)11 -=- 11 - Los Lobos - Charlena.flac -=- CDDA (100%)12 -=- 12 - Los Lobos - Goodnight My Love.flac -=- CDDA (42%)

Summary 79,25% CDDA

254924916
Для моих собратьев по любви к усложнению жизни прилагаю несколько картинок:
все 12 треков


-=- 01 - Los Lobos - La Bamba.flac -=-
CDDA (100%)
полный


с зумом


-=- 02 - Los Lobos - Come On, Let's Go.flac -=-
MPEG (95%)
полный


с зумом


-=- 07 - Howard Huntsberry - Lonely Teardrops.flac -=-
MPEG (95%)
полный


с зумом


Трекер:  [ 08-Июл-2011 12:08 ]

  

Скачать .torrent

Размер .torrent файла 31 KB


Размер: 186 MB
Хэш (hash) релиза: d3605aa53c866615571a14953b64608d723a5b28

Торренты, похожие на La Bamba скачать торрент

Форум Название Автор Размер S L Добавлен
Саундтреки к фильмам и мультфильмам (lossless) ·· (Soundtrack/Classic Rock/Rockabilly) La Bamba (Los Lobos & Howard Huntsberry, Marshall Crenshaw, Brian Setzer, Bo Diddley) - 1987, FLAC (tracks+.cue), lossless Galfimbul 194741335186 MB 0 0 1495449199

13:33

22-Май-17

Rосk | Mеtаl | Аltеrnаtivе, Рunk, Indереndеnt (mр3) ·· (Indie FolkAcousticExperemental) Y La Bamba - Ojos Del Sol - 2016, MP3, 320 kbps Galfimbul 9251118188 MB 0 0 1473195422

23:57

6-Сен-16

Еще никто не оставлял запись к записи скачать торрент La Bamba . Будь первым!

!Обратная связь