Скачать через торрент музыку Michael Nyman - Gattaca бесплатно без регистрации torrent

Если у вас наблюдаются проблемы со скриншотами, переходом по ссылками, скачиванием торрентов - проблемы в блокировщике рекламы AdBlock. #хорошегоДня!


Статистика раздачи
Размер:  305 MB   |    Зарегистрирован:  6 лет 5 месяцев   |    .torrent скачан:  55 раз   |   
Раздают:  1  
   
Загрузка...
 
Автор Сообщение

Galfimbul

avatar Galfimbul


Gattaca: Original Motion Picture Soundtrack

Жанр: Soundtrack, Stage & Screen
Стиль: Score
Лейбл: Virgin Records America, Inc.
Каталог#: CDVE 936, 7243 8 45018 2 2
Формат: CD
Год выпуска диска: 1997
Страна: USA
Composed and Conducted by: Michael Nyman
Mixed By, Engineer: John Richards
Аудио кодек: FLAC Тип рипа: tracks+.cue Битрейт аудио: lossless
Продолжительность: 55:11.000 (146015100 samples)
Трэклист:
01. The Morrow (03:13)
02. God's Hands (01:42)
03. The One Moment (01:40)
04. Traces (01:00)
05. The Arrival (03:53)
06. Becoming Jerome (01:06)
07. Call Me Eugene (01:24)
08. A Borrowed Ladder (01:47)
09. Further and Further (02:43)
10. Not the Only One (02:14)
11. Second Morrow (02:24)
12. Impromptu for 12 Fingers (From Schubert's "Impromptu in Gb Major, Op 90, No 3") (Piano - Michael Lang, Ryan Dorin, Written By Franz Schubert) (02:55)
13. The Crossing (01:24)
14. It Must Be the Light (01:23)
15. Only a Matter of Time (01:07)
16. I Thought You Wanted to Dance (01:13)
17. Irene's Theme (01:09)
18. Yourself for the Day (02:20)
19. Up Stairs (02:02)
20. Now That You're Here (02:44)
21. The Truth (02:13)
22. The Other Side (03:44)
23. The Departure (03:51)
24. Irene & The Morrow (05:44)
Notes: Engineered and mixed at Sony Scoring Stage, Culver City, CA.
All through this chilling depiction of a possible future, there's a sad sense of something lost, something forgotten. Family means little anymore, and you struggle to see where there's any joy in the characters' lives. Instead of "futuristic" music playing up the environment or technology, Nyman introduces two elements that focus on the story: first is a sense of sorrow. "The Morrow" immediately introduces this with adagio strings. A sub-plot involves sibling rivalry, portrayed by a secondary motif ("The One Moment") that also makes its mark via the string section, resolving ultimately in a rousing reprise at "The Other Side". The other aspect of the score is what made Nyman ideal for the job: he composes in cyclic cells. In chasing its own tail the music gives a complete statement of the not-so brave new world. To borrow the film's phonetic punning, it's a mournful work of gene-ius.
[/size]
 
Exact Audio Copy V0.99 prebeta 3 from 28. July 2007

EAC extraction logfile from 6. December 2007, 9:45

Michael Nyman / Gattaca

Used drive : SAMSUNG DVD-ROM SD-616Q Adapter: 0 ID: 0

Read mode : SecureUtilize accurate stream : YesDefeat audio cache : YesMake use of C2 pointers : No

Read offset correction : 12Overread into Lead-In and Lead-Out : NoFill up missing offset samples with silence : YesDelete leading and trailing silent blocks : NoNull samples used in CRC calculations : YesUsed interface : Installed external ASPI interfaceGap handling : Appended to previous track

Used output format : User Defined EncoderSelected bitrate : 128 kBit/sQuality : HighAdd ID3 tag : NoCommand line compressor : C:\Program\FLAC\flac.exeAdditional command line options : -8 -A tukey(0.25) -A gauss(0.1875) -b 4096 -V -T "artist=%a" -T "title=%t" -T "album=%g" -T "date=%y" -T "tracknumber=%n" -T "genre=%m" %s --sector-align

TOC of the extracted CD

Track | Start | Length | Start sector | End sector --------------------------------------------------------- 1 | 0:00.00 | 3:14.35 | 0 | 14584 2 | 3:14.35 | 1:42.12 | 14585 | 22246 3 | 4:56.47 | 1:40.25 | 22247 | 29771 4 | 6:36.72 | 1:00.43 | 29772 | 34314 5 | 7:37.40 | 3:53.35 | 34315 | 51824 6 | 11:31.00 | 1:07.15 | 51825 | 56864 7 | 12:38.15 | 1:24.02 | 56865 | 63166 8 | 14:02.17 | 1:47.13 | 63167 | 71204 9 | 15:49.30 | 2:43.70 | 71205 | 83499 10 | 18:33.25 | 2:14.30 | 83500 | 93579 11 | 20:47.55 | 2:26.05 | 93580 | 104534 12 | 23:13.60 | 2:58.37 | 104535 | 117921 13 | 26:12.22 | 1:24.10 | 117922 | 124231 14 | 27:36.32 | 1:24.05 | 124232 | 130536 15 | 29:00.37 | 1:07.68 | 130537 | 135629 16 | 30:08.30 | 1:12.30 | 135630 | 141059 17 | 31:20.60 | 1:09.70 | 141060 | 146304 18 | 32:30.55 | 2:20.17 | 146305 | 156821 19 | 34:50.72 | 2:02.38 | 156822 | 166009 20 | 36:53.35 | 2:43.30 | 166010 | 178264 21 | 39:36.65 | 2:13.45 | 178265 | 188284 22 | 41:50.35 | 3:44.05 | 188285 | 205089 23 | 45:34.40 | 3:51.67 | 205090 | 222481 24 | 49:26.32 | 5:44.43 | 222482 | 248324

Track 1

Filename C:\filer\mp3\new ripped\flac\Michael Nyman - Gattaca\01-The Morrow.wav

Pre-gap length 0:00:02.00

Peak level 94.6 % Track quality 100.0 % Test CRC 7ACDEEAB Copy CRC 7ACDEEAB Cannot be verified as accurate (confidence 8) [86AEA50F], AccurateRip returned [5197ABE4] Copy OK

Track 2

Filename C:\filer\mp3\new ripped\flac\Michael Nyman - Gattaca\02-God's Hands.wav

Peak level 93.4 % Track quality 100.0 % Test CRC AAB29D2C Copy CRC AAB29D2C Cannot be verified as accurate (confidence 8) [FA09DABF], AccurateRip returned [34D7733D] Copy OK

Track 3

Filename C:\filer\mp3\new ripped\flac\Michael Nyman - Gattaca\03-The One Moment.wav

Peak level 90.0 % Track quality 100.0 % Test CRC 2C601D08 Copy CRC 2C601D08 Cannot be verified as accurate (confidence 8) [929C301E], AccurateRip returned [6856AB67] Copy OK

Track 4

Filename C:\filer\mp3\new ripped\flac\Michael Nyman - Gattaca\04-Traces.wav

Peak level 80.7 % Track quality 100.0 % Test CRC 05E5742F Copy CRC 05E5742F Cannot be verified as accurate (confidence 8) [6DD39F1C], AccurateRip returned [40BB71F9] Copy OK

Track 5

Filename C:\filer\mp3\new ripped\flac\Michael Nyman - Gattaca\05-The Arrival.wav

Peak level 89.2 % Track quality 100.0 % Test CRC 7CFE68A5 Copy CRC 7CFE68A5 Cannot be verified as accurate (confidence 8) [7D36B20F], AccurateRip returned [F57BA6DA] Copy OK

Track 6

Filename C:\filer\mp3\new ripped\flac\Michael Nyman - Gattaca\06-Becoming Jerome.wav

Peak level 94.9 % Track quality 100.0 % Test CRC DB2B7561 Copy CRC DB2B7561 Cannot be verified as accurate (confidence 8) [405D40CA], AccurateRip returned [FBA7650E] Copy OK

Track 7

Filename C:\filer\mp3\new ripped\flac\Michael Nyman - Gattaca\07-Call Me Eugene.wav

Peak level 49.3 % Track quality 99.8 % Test CRC 94FED6F4 Copy CRC 94FED6F4 Cannot be verified as accurate (confidence 8) [2FBDEF72], AccurateRip returned [DF244F41] Copy OK

Track 8

Filename C:\filer\mp3\new ripped\flac\Michael Nyman - Gattaca\08-A Borrowed Ladder.wav

Peak level 93.7 % Track quality 100.0 % Test CRC 7D609A23 Copy CRC 7D609A23 Cannot be verified as accurate (confidence 8) [CD7CD361], AccurateRip returned [36825E4D] Copy OK

Track 9

Filename C:\filer\mp3\new ripped\flac\Michael Nyman - Gattaca\09-Further And Further.wav

Peak level 94.9 % Track quality 100.0 % Test CRC E7EFD935 Copy CRC E7EFD935 Cannot be verified as accurate (confidence 8) [3F32F66B], AccurateRip returned [F250EB83] Copy OK

Track 10

Filename C:\filer\mp3\new ripped\flac\Michael Nyman - Gattaca\10-Not The Only One.wav

Peak level 71.1 % Track quality 100.0 % Test CRC EF165760 Copy CRC EF165760 Cannot be verified as accurate (confidence 8) [D75552B9], AccurateRip returned [5862B047] Copy OK

Track 11

Filename C:\filer\mp3\new ripped\flac\Michael Nyman - Gattaca\11-Second Morrow.wav

Pre-gap length 0:00:00.01

Peak level 91.9 % Track quality 100.0 % Test CRC 1371E475 Copy CRC 1371E475 Cannot be verified as accurate (confidence 8) [08D6C75F], AccurateRip returned [ECEBD473] Copy OK

Track 12

Filename C:\filer\mp3\new ripped\flac\Michael Nyman - Gattaca\12-Impromptu For 12 Fingers.wav

Pre-gap length 0:00:00.01

Peak level 89.9 % Track quality 100.0 % Test CRC 4B468992 Copy CRC 4B468992 Cannot be verified as accurate (confidence 8) [8D066F91], AccurateRip returned [485EE719] Copy OK

Track 13

Filename C:\filer\mp3\new ripped\flac\Michael Nyman - Gattaca\13-The Crossing.wav

Pre-gap length 0:00:00.01

Peak level 90.4 % Track quality 100.0 % Test CRC 30B8D604 Copy CRC 30B8D604 Cannot be verified as accurate (confidence 8) [962EBA30], AccurateRip returned [CE69D273] Copy OK

Track 14

Filename C:\filer\mp3\new ripped\flac\Michael Nyman - Gattaca\14-It Must Be The Light.wav

Pre-gap length 0:00:00.01

Peak level 86.4 % Track quality 100.0 % Test CRC 42E8F0A8 Copy CRC 42E8F0A8 Cannot be verified as accurate (confidence 8) [9A059847], AccurateRip returned [A8815572] Copy OK

Track 15

Filename C:\filer\mp3\new ripped\flac\Michael Nyman - Gattaca\15-Only A Matter Of Time.wav

Pre-gap length 0:00:00.01

Peak level 41.5 % Track quality 100.0 % Test CRC 97779D6E Copy CRC 97779D6E Cannot be verified as accurate (confidence 8) [EEAEA067], AccurateRip returned [D52F7637] Copy OK

Track 16

Filename C:\filer\mp3\new ripped\flac\Michael Nyman - Gattaca\16-I Thought You Wanted To Dance.wav

Pre-gap length 0:00:00.01

Peak level 60.4 % Track quality 99.8 % Test CRC 1164C5E1 Copy CRC 1164C5E1 Cannot be verified as accurate (confidence 8) [B6E2A8FC], AccurateRip returned [C30A9CB6] Copy OK

Track 17

Filename C:\filer\mp3\new ripped\flac\Michael Nyman - Gattaca\17-Irene's Theme.wav

Pre-gap length 0:00:00.01

Peak level 92.0 % Track quality 100.0 % Test CRC 2CBEE8B4 Copy CRC 2CBEE8B4 Cannot be verified as accurate (confidence 8) [5586AA33], AccurateRip returned [D8799D2B] Copy OK

Track 18

Filename C:\filer\mp3\new ripped\flac\Michael Nyman - Gattaca\18-Yourself For The Day.wav

Pre-gap length 0:00:00.01

Peak level 92.2 % Track quality 100.0 % Test CRC 29F79BC1 Copy CRC 29F79BC1 Cannot be verified as accurate (confidence 8) [85DC542C], AccurateRip returned [A9C77031] Copy OK

Track 19

Filename C:\filer\mp3\new ripped\flac\Michael Nyman - Gattaca\19-Up Stairs.wav

Pre-gap length 0:00:00.01

Peak level 94.8 % Track quality 99.9 % Test CRC 530BC205 Copy CRC 530BC205 Cannot be verified as accurate (confidence 8) [BC713B26], AccurateRip returned [D5556DD1] Copy OK

Track 20

Filename C:\filer\mp3\new ripped\flac\Michael Nyman - Gattaca\20-Now That You're Here.wav

Pre-gap length 0:00:00.01

Peak level 90.8 % Track quality 100.0 % Test CRC 6DC0464B Copy CRC 6DC0464B Cannot be verified as accurate (confidence 8) [81A57A72], AccurateRip returned [5689C1D5] Copy OK

Track 21

Filename C:\filer\mp3\new ripped\flac\Michael Nyman - Gattaca\21-The Truth.wav

Pre-gap length 0:00:00.11

Peak level 94.7 % Track quality 100.0 % Test CRC E98E2711 Copy CRC E98E2711 Cannot be verified as accurate (confidence 8) [CD537BE3], AccurateRip returned [94F557BE] Copy OK

Track 22

Filename C:\filer\mp3\new ripped\flac\Michael Nyman - Gattaca\22-The Other Side.wav

Pre-gap length 0:00:00.01

Peak level 91.4 % Track quality 100.0 % Test CRC A5B6844D Copy CRC A5B6844D Cannot be verified as accurate (confidence 8) [6863B237], AccurateRip returned [BAE498A0] Copy OK

Track 23

Filename C:\filer\mp3\new ripped\flac\Michael Nyman - Gattaca\23-The Departure.wav

Pre-gap length 0:00:00.01

Peak level 91.5 % Track quality 100.0 % Test CRC 677CC2DB Copy CRC 677CC2DB Cannot be verified as accurate (confidence 8) [D8124A42], AccurateRip returned [034CF151] Copy OK

Track 24

Filename C:\filer\mp3\new ripped\flac\Michael Nyman - Gattaca\24-Irene And The Morrow.wav

Pre-gap length 0:00:00.01

Peak level 94.9 % Track quality 100.0 % Test CRC 941E05F5 Copy CRC 941E05F5 Cannot be verified as accurate (confidence 7) [0B0115C3], AccurateRip returned [52F4CC3C] Copy OK

No tracks could be verified as accurateYou may have a different pressing from the one(s) in the database

No errors occurred

End of status report
 
AUDIOCHECKER v1.2 - by Dester - opdester@freemail.hu~~~~~~~~~~~~~~~~~

01 -===- D:\Michael Nyman - Gattaca - Original Motion Picture Soundtrack (1997)\01-The Morrow.flac Extracted successfully Conclusion: This track looks like CDDA with probability 100%

02 -===- D:\Michael Nyman - Gattaca - Original Motion Picture Soundtrack (1997)\02-God's Hands.flac Extracted successfully Conclusion: This track looks like CDDA with probability 100%

03 -===- D:\Michael Nyman - Gattaca - Original Motion Picture Soundtrack (1997)\03-The One Moment.flac Extracted successfully Conclusion: This track looks like CDDA with probability 100%

04 -===- D:\Michael Nyman - Gattaca - Original Motion Picture Soundtrack (1997)\04-Traces.flac Extracted successfully Conclusion: This track looks like CDDA with probability 100%

05 -===- D:\Michael Nyman - Gattaca - Original Motion Picture Soundtrack (1997)\05-The Arrival.flac Extracted successfully Conclusion: This track looks like CDDA with probability 100%

06 -===- D:\Michael Nyman - Gattaca - Original Motion Picture Soundtrack (1997)\06-Becoming Jerome.flac Extracted successfully Conclusion: This track looks like CDDA with probability 100%

07 -===- D:\Michael Nyman - Gattaca - Original Motion Picture Soundtrack (1997)\07-Call Me Eugene.flac Extracted successfully Conclusion: This track looks like CDDA with probability 100%

08 -===- D:\Michael Nyman - Gattaca - Original Motion Picture Soundtrack (1997)\08-A Borrowed Ladder.flac Extracted successfully Conclusion: This track looks like CDDA with probability 100%

09 -===- D:\Michael Nyman - Gattaca - Original Motion Picture Soundtrack (1997)\09-Further And Further.flac Extracted successfully Conclusion: This track looks like CDDA with probability 100%

10 -===- D:\Michael Nyman - Gattaca - Original Motion Picture Soundtrack (1997)\10-Not The Only One.flac Extracted successfully Conclusion: This track looks like CDDA with probability 100%

11 -===- D:\Michael Nyman - Gattaca - Original Motion Picture Soundtrack (1997)\11-Second Morrow.flac Extracted successfully Conclusion: This track looks like CDDA with probability 100%

12 -===- D:\Michael Nyman - Gattaca - Original Motion Picture Soundtrack (1997)\12-Impromptu For 12 Fingers.flac Extracted successfully Conclusion: This track looks like CDDA with probability 100%

13 -===- D:\Michael Nyman - Gattaca - Original Motion Picture Soundtrack (1997)\13-The Crossing.flac Extracted successfully Conclusion: This track looks like CDDA with probability 100%

14 -===- D:\Michael Nyman - Gattaca - Original Motion Picture Soundtrack (1997)\14-It Must Be The Light.flac Extracted successfully Conclusion: This track looks like CDDA with probability 100%

15 -===- D:\Michael Nyman - Gattaca - Original Motion Picture Soundtrack (1997)\15-Only A Matter Of Time.flac Extracted successfully Conclusion: This track looks like CDDA with probability 100%

16 -===- D:\Michael Nyman - Gattaca - Original Motion Picture Soundtrack (1997)\16-I Thought You Wanted To Dance.flac Extracted successfully Conclusion: This track looks like CDDA with probability 100%

17 -===- D:\Michael Nyman - Gattaca - Original Motion Picture Soundtrack (1997)\17-Irene's Theme.flac Extracted successfully Conclusion: This track looks like CDDA with probability 100%

18 -===- D:\Michael Nyman - Gattaca - Original Motion Picture Soundtrack (1997)\18-Yourself For The Day.flac Extracted successfully Conclusion: This track looks like CDDA with probability 100%

19 -===- D:\Michael Nyman - Gattaca - Original Motion Picture Soundtrack (1997)\19-Up Stairs.flac Extracted successfully Conclusion: This track looks like CDDA with probability 100%

20 -===- D:\Michael Nyman - Gattaca - Original Motion Picture Soundtrack (1997)\20-Now That You're Here.flac Extracted successfully Conclusion: This track looks like CDDA with probability 100%

21 -===- D:\Michael Nyman - Gattaca - Original Motion Picture Soundtrack (1997)\21-The Truth.flac Extracted successfully Conclusion: This track looks like CDDA with probability 100%

22 -===- D:\Michael Nyman - Gattaca - Original Motion Picture Soundtrack (1997)\22-The Other Side.flac Extracted successfully Conclusion: This track looks like CDDA with probability 100%

23 -===- D:\Michael Nyman - Gattaca - Original Motion Picture Soundtrack (1997)\23-The Departure.flac Extracted successfully Conclusion: This track looks like CDDA with probability 100%

24 -===- D:\Michael Nyman - Gattaca - Original Motion Picture Soundtrack (1997)\24-Irene And The Morrow.flac Extracted successfully Conclusion: This track looks like CDDA with probability 99%


Трекер:  [ 08-Июл-2011 13:16 ]

  

Скачать .torrent

Размер .torrent файла 14 KB


Размер: 305 MB
Хэш (hash) релиза: 68104b6fe9e0f53bd27f8549135eaa369cdecacc

Торренты, похожие на Michael Nyman - Gattaca скачать торрент

Форум Название Автор Размер S L Добавлен
Саундтреки к фильмам и мультфильмам (mp3) ·· (Score) Gattaca / Гаттака (Michael Nyman) - 1997, MP3 (tracks), 320 kbps Galfimbul 151419316144 MB 0 0 1292266153

21:49

13-Дек-10

Еще никто не оставлял запись к записи скачать торрент Michael Nyman - Gattaca . Будь первым!

!Обратная связь