Скачать через торрент музыку John Murphy - Last House On The Left - 2009, FLAC бесплатно без регистрации torrent

Если у вас наблюдаются проблемы со скриншотами, переходом по ссылками, скачиванием торрентов - проблемы в блокировщике рекламы AdBlock. #хорошегоДня!


Статистика раздачи
Размер:  233 MB   |    Зарегистрирован:  6 лет 5 месяцев   |    .torrent скачан:  52 раза   |   
Раздают:  1  
   
Загрузка...
 
Автор Сообщение

Galfimbul

avatar Galfimbul


John Murphy - Last House On The Left

Жанр: Score
Год выпуска диска: 2009
Аудио кодек: FLAC
Тип рипа: tracks+.cue
Битрейт аудио: lossless
Трэклист:
1. Opening Titles (1:40)
2. The Crossing (2:35)
3. The Pool (0:56)
4. The House (1:31)
5. The Boathouse (2:03)
6. Getting Stoned (1:07)
7. In the Woods (4:01)
8. Are You Ready to Be a Man? (2:30)
9. Killing Paige (1:02)
10. After the Assault (3:20)
11. Dead in the Water (2:15)
12. Candles (3:57)
13. Saving Mari (4:59)
14. Going to the Guest House (2:52)
15. Looking for Krug (3:28)
16. John v Krug (2:32)
17. The End (4:10)
18. Opening Titles (Alternate) (1:34)
Доп. информация:
 
Exact Audio Copy V0.99 prebeta 4 from 23. January 2008

EAC extraction logfile from 30. May 2009, 23:02

John Murphy / Last House On The Left

Used drive : TSSTcorpCDDVDW SE-S224Q Adapter: 3 ID: 0

Read mode : SecureUtilize accurate stream : YesDefeat audio cache : YesMake use of C2 pointers : No

Read offset correction : 6Overread into Lead-In and Lead-Out : NoFill up missing offset samples with silence : YesDelete leading and trailing silent blocks : NoNull samples used in CRC calculations : YesUsed interface : Native Win32 interface for Win NT & 2000Gap handling : Appended to previous track

Used output format : User Defined EncoderSelected bitrate : 128 kBit/sQuality : HighAdd ID3 tag : NoCommand line compressor : D:\Programme\Exact Audio Copy\FLAC\FLAC.EXEAdditional command line options : -8 -V -T "artist=%a" -T "title=%t" -T "album=%g" -T "date=%y" -T "tracknumber=%n" -T "genre=%m" %s

TOC of the extracted CD

Track | Start | Length | Start sector | End sector --------------------------------------------------------- 1 | 0:00.00 | 1:40.22 | 0 | 7521 2 | 1:40.22 | 2:36.03 | 7522 | 19224 3 | 4:16.25 | 0:56.39 | 19225 | 23463 4 | 5:12.64 | 1:31.43 | 23464 | 30331 5 | 6:44.32 | 2:04.00 | 30332 | 39631 6 | 8:48.32 | 1:07.15 | 39632 | 44671 7 | 9:55.47 | 4:01.52 | 44672 | 62798 8 | 13:57.24 | 2:30.33 | 62799 | 74081 9 | 16:27.57 | 1:02.10 | 74082 | 78741 10 | 17:29.67 | 3:20.74 | 78742 | 93815 11 | 20:50.66 | 2:15.06 | 93816 | 103946 12 | 23:05.72 | 3:57.43 | 103947 | 121764 13 | 27:03.40 | 5:00.01 | 121765 | 144265 14 | 32:03.41 | 2:52.24 | 144266 | 157189 15 | 34:55.65 | 3:28.57 | 157190 | 172846 16 | 38:24.47 | 2:32.18 | 172847 | 184264 17 | 40:56.65 | 4:10.53 | 184265 | 203067 18 | 45:07.43 | 1:34.42 | 203068 | 210159

Track 1

Filename D:\Last House On The Left\01 Opening Titles.wav

Pre-gap length 0:00:02.00

Peak level 67.4 % Track quality 99.8 % Test CRC 13EFC3FA Copy CRC 13EFC3FA Copy OK

Track 2

Filename D:\Last House On The Left\02 The Crossing.wav

Pre-gap length 0:00:02.00

Peak level 99.3 % Track quality 99.9 % Test CRC C68832B9 Copy CRC C68832B9 Copy OK

Track 3

Filename D:\Last House On The Left\03 The Pool.wav

Pre-gap length 0:00:02.00

Peak level 83.0 % Track quality 100.0 % Test CRC A3246DCE Copy CRC A3246DCE Copy OK

Track 4

Filename D:\Last House On The Left\04 The House.wav

Pre-gap length 0:00:02.00

Peak level 81.8 % Track quality 100.0 % Test CRC F11A5310 Copy CRC F11A5310 Copy OK

Track 5

Filename D:\Last House On The Left\05 The Boathouse.wav

Pre-gap length 0:00:02.00

Peak level 100.0 % Track quality 100.0 % Test CRC 4FC19940 Copy CRC 4FC19940 Copy OK

Track 6

Filename D:\Last House On The Left\06 Getting Stoned.wav

Pre-gap length 0:00:02.00

Peak level 100.0 % Track quality 100.0 % Test CRC F773C133 Copy CRC F773C133 Copy OK

Track 7

Filename D:\Last House On The Left\07 In The Woods.wav

Pre-gap length 0:00:02.00

Peak level 98.0 % Track quality 100.0 % Test CRC 8BABBE83 Copy CRC 8BABBE83 Copy OK

Track 8

Filename D:\Last House On The Left\08 Are You Ready To Be A Man .wav

Pre-gap length 0:00:02.00

Peak level 96.8 % Track quality 99.9 % Test CRC BD0D0B3A Copy CRC BD0D0B3A Copy OK

Track 9

Filename D:\Last House On The Left\09 Killing Paige.wav

Pre-gap length 0:00:02.00

Peak level 85.1 % Track quality 100.0 % Test CRC D04EE2AD Copy CRC D04EE2AD Copy OK

Track 10

Filename D:\Last House On The Left\10 After The Rape.wav

Pre-gap length 0:00:02.00

Peak level 99.7 % Track quality 100.0 % Test CRC 7DEF36F7 Copy CRC 7DEF36F7 Copy OK

Track 11

Filename D:\Last House On The Left\11 Dead In The Water.wav

Pre-gap length 0:00:02.00

Peak level 99.1 % Track quality 100.0 % Test CRC B498CB00 Copy CRC B498CB00 Copy OK

Track 12

Filename D:\Last House On The Left\12 Candles.wav

Pre-gap length 0:00:02.00

Peak level 88.8 % Track quality 100.0 % Test CRC 78B4E653 Copy CRC 78B4E653 Copy OK

Track 13

Filename D:\Last House On The Left\13 Saving Mari.wav

Pre-gap length 0:00:02.00

Peak level 89.5 % Track quality 100.0 % Test CRC 2581AC38 Copy CRC 2581AC38 Copy OK

Track 14

Filename D:\Last House On The Left\14 Going To The Guest House.wav

Pre-gap length 0:00:02.00

Peak level 90.9 % Track quality 99.9 % Test CRC 10B5ECC2 Copy CRC 10B5ECC2 Copy OK

Track 15

Filename D:\Last House On The Left\15 Looking For Krug.wav

Pre-gap length 0:00:02.00

Peak level 89.8 % Track quality 100.0 % Test CRC 90AA0173 Copy CRC 90AA0173 Copy OK

Track 16

Filename D:\Last House On The Left\16 John v Krug.wav

Pre-gap length 0:00:02.00

Peak level 100.0 % Track quality 100.0 % Test CRC 79E9B926 Copy CRC 79E9B926 Copy OK

Track 17

Filename D:\Last House On The Left\17 The End.wav

Pre-gap length 0:00:02.00

Peak level 81.7 % Track quality 99.9 % Test CRC 062B4077 Copy CRC 062B4077 Copy OK

Track 18

Filename D:\Last House On The Left\18 Opening Titles (alt).wav

Pre-gap length 0:00:04.00

Peak level 86.2 % Track quality 100.0 % Test CRC 0FCDE5C7 Copy CRC 0FCDE5C7 Copy OK

No errors occurred

End of status report
Очень неплохой саундтрек - Мерфи как всегда на высоте.
What.cd

Трекер:  [ 08-Июл-2011 13:15 ]

  

Скачать .torrent

Размер .torrent файла 20 KB


Размер: 233 MB
Хэш (hash) релиза: 3b5d1b8efa07144b9cf6abe563819fe80e5fac8f

Еще никто не оставлял запись к записи скачать торрент John Murphy - Last House On The Left - 2009, FLAC . Будь первым!

!Обратная связь