Скачать через торрент музыку Классный мюзикл 2 High School Musical 2: Non-Stop Dance Party бесплатно без регистрации torrent

Если у вас наблюдаются проблемы со скриншотами, переходом по ссылками, скачиванием торрентов - проблемы в блокировщике рекламы AdBlock. #хорошегоДня!


Статистика раздачи
Размер:  349 MB   |    Зарегистрирован:  6 лет 5 месяцев   |    .torrent скачан:  32 раза   |   
Раздают:  1  
   
Загрузка...
 
Автор Сообщение

Galfimbul

avatar Galfimbul


Классный мюзикл 2
High School Musical 2: Non-Stop Dance Party
Jason Nevins Remixes

Жанр: Soundtrack
Год выпуска диска: 2007
Производитель диска: Walt Disney
Аудио кодек: FLAC
Тип рипа: tracks+.cue
Битрейт аудио: lossless
Продолжительность: 00:45:52
Источник: WhatCD
Трэклист:
01. What time is it (Jason Nevins Remix) [03:56]
02. I don't dance (Jason Nevins Remix) [03:58]
03. Gotta go my own way (Jason Nevins Remix) [02:56]
04. You are the music in me (Jason Nevins Remix) [03:09]
05. Work this out (Jason Nevins Remix) [02:58]
06. Everyday (Jason Nevins Remix) [04:48]
07. Fabulous (Jason Nevins Remix) [03:27]
08. Bet on it (Jason Nevins Remix) [03:51]
09. All for one (Jason Nevins Remix) [04:35]
10. You are the music in me (Sharpay version / Jason Nevins Remix) [03:31]
11. Humuhumunukunukuapua'a (Jason Nevins Remix) [03:11]
12. The Megamix (Bonus Track) [05:27]
 
Exact Audio Copy V0.99 prebeta 5 from 4. May 2009

EAC extraction logfile from 10. August 2009, 18:32

Vaious / High School Musical 2

Used drive : TSSTcorpCDDVDW SH-S203B Adapter: 4 ID: 0

Read mode : SecureUtilize accurate stream : YesDefeat audio cache : YesMake use of C2 pointers : No

Read offset correction : 6Overread into Lead-In and Lead-Out : NoFill up missing offset samples with silence : YesDelete leading and trailing silent blocks : NoNull samples used in CRC calculations : YesUsed interface : Native Win32 interface for Win NT & 2000Gap handling : Appended to previous track

Used output format : User Defined EncoderSelected bitrate : 768 kBit/sQuality : HighAdd ID3 tag : NoCommand line compressor : C:\Program Files (x86)\Exact Audio Copy\FLAC\FLAC.EXEAdditional command line options : -V -8 -T "artist=%a" -T "title=%t" -T "album=%g" -T "date=%y" -T "tracknumber=%n" -T "genre=%m" %s

TOC of the extracted CD

Track | Start | Length | Start sector | End sector --------------------------------------------------------- 1 | 0:00.00 | 3:56.53 | 0 | 17752 2 | 3:56.53 | 3:58.32 | 17753 | 35634 3 | 7:55.10 | 2:56.72 | 35635 | 48906 4 | 10:52.07 | 3:09.39 | 48907 | 63120 5 | 14:01.46 | 2:58.57 | 63121 | 76527 6 | 17:00.28 | 4:48.18 | 76528 | 98145 7 | 21:48.46 | 3:27.09 | 98146 | 113679 8 | 25:15.55 | 3:51.07 | 113680 | 131011 9 | 29:06.62 | 4:35.74 | 131012 | 151710 10 | 33:42.61 | 3:31.30 | 151711 | 167565 11 | 37:14.16 | 3:11.21 | 167566 | 181911 12 | 40:25.37 | 5:27.26 | 181912 | 206462 13 | 48:24.63 | 16:50.00 | 217863 | 293612

Track 1

Filename D:\EAC Rips\Vaious - 2007 - High School Musical 2\01 - What time is it.wav

Pre-gap length 0:00:02.00

Peak level 99.9 % Track quality 100.0 % Test CRC 92B26D3F Copy CRC 92B26D3F Track not present in AccurateRip database Copy OK

Track 2

Filename D:\EAC Rips\Vaious - 2007 - High School Musical 2\02 - I don't dance.wav

Peak level 99.9 % Track quality 99.9 % Test CRC B0ABD436 Copy CRC B0ABD436 Track not present in AccurateRip database Copy OK

Track 3

Filename D:\EAC Rips\Vaious - 2007 - High School Musical 2\03 - Gotta go my own way.wav

Peak level 99.9 % Track quality 99.9 % Test CRC 28C2ECC2 Copy CRC 28C2ECC2 Track not present in AccurateRip database Copy OK

Track 4

Filename D:\EAC Rips\Vaious - 2007 - High School Musical 2\04 - You are the music in me.wav

Peak level 100.0 % Track quality 100.0 % Test CRC 379A4103 Copy CRC 379A4103 Track not present in AccurateRip database Copy OK

Track 5

Filename D:\EAC Rips\Vaious - 2007 - High School Musical 2\05 - Work this out.wav

Peak level 99.9 % Track quality 100.0 % Test CRC 3721E21C Copy CRC 3721E21C Track not present in AccurateRip database Copy OK

Track 6

Filename D:\EAC Rips\Vaious - 2007 - High School Musical 2\06 - Everyday.wav

Peak level 99.9 % Track quality 99.9 % Test CRC E432B4EF Copy CRC E432B4EF Track not present in AccurateRip database Copy OK

Track 7

Filename D:\EAC Rips\Vaious - 2007 - High School Musical 2\07 - Fabulous.wav

Peak level 99.9 % Track quality 100.0 % Test CRC 28418E49 Copy CRC 28418E49 Track not present in AccurateRip database Copy OK

Track 8

Filename D:\EAC Rips\Vaious - 2007 - High School Musical 2\08 - Bet on it.wav

Peak level 99.9 % Track quality 99.9 % Test CRC CE58733D Copy CRC CE58733D Track not present in AccurateRip database Copy OK

Track 9

Filename D:\EAC Rips\Vaious - 2007 - High School Musical 2\09 - All for one.wav

Peak level 99.9 % Track quality 100.0 % Test CRC 9D2731DC Copy CRC 9D2731DC Track not present in AccurateRip database Copy OK

Track 10

Filename D:\EAC Rips\Vaious - 2007 - High School Musical 2\10 - You are the music in me (Sharpay version).wav

Peak level 99.9 % Track quality 100.0 % Test CRC 64874F6D Copy CRC 64874F6D Track not present in AccurateRip database Copy OK

Track 11

Filename D:\EAC Rips\Vaious - 2007 - High School Musical 2\11 - Humuhumunukunukuapua'a.wav

Peak level 99.9 % Track quality 99.9 % Test CRC 5F81A4D8 Copy CRC 5F81A4D8 Track not present in AccurateRip database Copy OK

Track 12

Filename D:\EAC Rips\Vaious - 2007 - High School Musical 2\12 - Bonus Track - The Megamix.wav

Pre-gap length 0:00:00.55

Peak level 99.9 % Track quality 100.0 % Test CRC CD0F988A Copy CRC CD0F988A Track not present in AccurateRip database Copy OK

None of the tracks are present in the AccurateRip database

No errors occurred

End of status report
 
REM GENRE PopREM DATE 2007REM DISCID A00F4A0DREM COMMENT "ExactAudioCopy v0.99pb5"PERFORMER "Vaious"TITLE "High School Musical 2"FILE "Vaious - 2007 - High School Musical 2\01 - What time is it.wav" WAVE TRACK 01 AUDIO TITLE "What time is it" PERFORMER "Vaious" INDEX 01 00:00:00FILE "Vaious - 2007 - High School Musical 2\02 - I don't dance.wav" WAVE TRACK 02 AUDIO TITLE "I don't dance" PERFORMER "Vaious" INDEX 01 00:00:00FILE "Vaious - 2007 - High School Musical 2\03 - Gotta go my own way.wav" WAVE TRACK 03 AUDIO TITLE "Gotta go my own way" PERFORMER "Vaious" INDEX 01 00:00:00FILE "Vaious - 2007 - High School Musical 2\04 - You are the music in me.wav" WAVE TRACK 04 AUDIO TITLE "You are the music in me" PERFORMER "Vaious" INDEX 01 00:00:00FILE "Vaious - 2007 - High School Musical 2\05 - Work this out.wav" WAVE TRACK 05 AUDIO TITLE "Work this out" PERFORMER "Vaious" INDEX 01 00:00:00FILE "Vaious - 2007 - High School Musical 2\06 - Everyday.wav" WAVE TRACK 06 AUDIO TITLE "Everyday" PERFORMER "Vaious" INDEX 01 00:00:00FILE "Vaious - 2007 - High School Musical 2\07 - Fabulous.wav" WAVE TRACK 07 AUDIO TITLE "Fabulous" PERFORMER "Vaious" INDEX 01 00:00:00FILE "Vaious - 2007 - High School Musical 2\08 - Bet on it.wav" WAVE TRACK 08 AUDIO TITLE "Bet on it" PERFORMER "Vaious" INDEX 01 00:00:00FILE "Vaious - 2007 - High School Musical 2\09 - All for one.wav" WAVE TRACK 09 AUDIO TITLE "All for one" PERFORMER "Vaious" INDEX 01 00:00:00FILE "Vaious - 2007 - High School Musical 2\10 - You are the music in me (Sharpay version).wav" WAVE TRACK 10 AUDIO TITLE "You are the music in me (Sharpay version)" PERFORMER "Vaious" INDEX 01 00:00:00FILE "Vaious - 2007 - High School Musical 2\11 - Humuhumunukunukuapua'a.wav" WAVE TRACK 11 AUDIO TITLE "Humuhumunukunukuapua'a" PERFORMER "Vaious" INDEX 01 00:00:00 TRACK 12 AUDIO TITLE "Bonus Track : The Megamix" PERFORMER "Vaious" INDEX 00 03:10:41FILE "Vaious - 2007 - High School Musical 2\12 - Bonus Track - The Megamix.wav" WAVE INDEX 01 00:00:00 TRACK 13 MODEx/2xxx TITLE "Data Track" PERFORMER "Vaious" INDEX 00 05:27:26
 
REM GENRE PopREM DATE 2007REM DISCID A00F4A0DREM COMMENT "ExactAudioCopy v0.99pb5"PERFORMER "Vaious"TITLE "High School Musical 2"FILE "01 - What time is it.wav" WAVE TRACK 01 AUDIO TITLE "What time is it" PERFORMER "Vaious" INDEX 01 00:00:00FILE "02 - I don't dance.wav" WAVE TRACK 02 AUDIO TITLE "I don't dance" PERFORMER "Vaious" INDEX 01 00:00:00FILE "03 - Gotta go my own way.wav" WAVE TRACK 03 AUDIO TITLE "Gotta go my own way" PERFORMER "Vaious" INDEX 01 00:00:00FILE "04 - You are the music in me.wav" WAVE TRACK 04 AUDIO TITLE "You are the music in me" PERFORMER "Vaious" INDEX 01 00:00:00FILE "05 - Work this out.wav" WAVE TRACK 05 AUDIO TITLE "Work this out" PERFORMER "Vaious" INDEX 01 00:00:00FILE "06 - Everyday.wav" WAVE TRACK 06 AUDIO TITLE "Everyday" PERFORMER "Vaious" INDEX 01 00:00:00FILE "07 - Fabulous.wav" WAVE TRACK 07 AUDIO TITLE "Fabulous" PERFORMER "Vaious" INDEX 01 00:00:00FILE "08 - Bet on it.wav" WAVE TRACK 08 AUDIO TITLE "Bet on it" PERFORMER "Vaious" INDEX 01 00:00:00FILE "09 - All for one.wav" WAVE TRACK 09 AUDIO TITLE "All for one" PERFORMER "Vaious" INDEX 01 00:00:00FILE "10 - You are the music in me (Sharpay version).wav" WAVE TRACK 10 AUDIO TITLE "You are the music in me (Sharpay version)" PERFORMER "Vaious" INDEX 01 00:00:00FILE "11 - Humuhumunukunukuapua'a.wav" WAVE TRACK 11 AUDIO TITLE "Humuhumunukunukuapua'a" PERFORMER "Vaious" INDEX 01 00:00:00 TRACK 12 AUDIO TITLE "Bonus Track : The Megamix" PERFORMER "Vaious" INDEX 00 03:10:41FILE "12 - Bonus Track - The Megamix.wav" WAVE INDEX 01 00:00:00


Трекер:  [ 08-Июл-2011 13:13 ]

  

Скачать .torrent

Размер .torrent файла 28 KB


Размер: 349 MB
Хэш (hash) релиза: ea8e76c4c2f24209c2ebe41095207dc28e0e4c0a

Еще никто не оставлял запись к записи скачать торрент Классный мюзикл 2 High School Musical 2: Non-Stop Dance Party . Будь первым!

!Обратная связь