Скачать через торрент музыку Stealing Beauty Ускользающая красота - 1996, FLAC бесплатно без регистрации torrent

Если у вас наблюдаются проблемы со скриншотами, переходом по ссылками, скачиванием торрентов - проблемы в блокировщике рекламы AdBlock. #хорошегоДня!


Статистика раздачи
Размер:  338 MB   |    Зарегистрирован:  6 лет 5 месяцев   |    .torrent скачан:  54 раза   |   
Раздают:  1  
   
Загрузка...
 
Автор Сообщение

Galfimbul

avatar Galfimbul


Stealing Beauty / Ускользающая красота
Жанр: Soundtrack
Год выпуска диска: 1996
Производитель диска: USA
Аудио кодек: FLAC
Тип рипа: tracks+.cue
Битрейт аудио: lossless
Продолжительность: 51:40

Трэклист:

1. Hoover - 2 Wicky
2. Portishead - Glory Box
3. Axiom Funk Featuring Bootsy Collins - If 6 Was 9
4. John Lee Hooker - Annie Mae
5. Liz Phair - Rocket Boy
6. Stevie Wonder - Superstition
7. Nina Simone - My Baby Just Cares For Me
8. Billie Holiday - I'll Be Seeing You
9. Mazzy Star - Rhymes Of An Hour
10. Cocteau Twins - Alice
11. Lori Carson - You Won't Fall
12. Sam Phillips - I Need Love
Дополнительная информация: Фильм на котором я вырос + мызыка. Без коментариев. Лив в фильме беспадобна.
Exact Audio Copy V0.99 prebeta 5 from 4. May 2009

EAC extraction logfile from 27. October 2009, 13:11

Various / Stealing Beauty

Used drive : Optiarc DVD RW AD-7170A Adapter: 0 ID: 0

Read mode : Secure
Utilize accurate stream : Yes
Defeat audio cache : Yes
Make use of C2 pointers : No

Read offset correction : 48
Overread into Lead-In and Lead-Out : No
Fill up missing offset samples with silence : Yes
Delete leading and trailing silent blocks : No
Null samples used in CRC calculations : Yes
Used interface : Native Win32 interface for Win NT & 2000
Gap handling : Appended to previous track

Used output format : User Defined Encoder
Selected bitrate : 320 kBit/s
Quality : High
Add ID3 tag : No
Command line compressor : C:\Program Files\Exact Audio Copy\Flac\flac.exe
Additional command line options : -8 -V -T "ARTIST=%a" -T "TITLE=%t" -T "ALBUM=%g" -T "DATE=%y" -T "TRACKNUMBER=%n" -T "GENRE=%m" -T "COMMENT=EAC FLAC -8" %s

TOC of the extracted CD

Track | Start | Length | Start sector | End sector
---------------------------------------------------------
1 | 0:00.00 | 3:33.50 | 0 | 16024
2 | 3:33.50 | 5:01.38 | 16025 | 38637
3 | 8:35.13 | 5:58.52 | 38638 | 65539
4 | 14:33.65 | 5:15.58 | 65540 | 89222
5 | 19:49.48 | 3:20.65 | 89223 | 104287
6 | 23:10.38 | 4:27.05 | 104288 | 124317
7 | 27:37.43 | 3:36.03 | 124318 | 140520
8 | 31:13.46 | 3:28.72 | 140521 | 156192
9 | 34:42.43 | 4:09.40 | 156193 | 174907
10 | 38:52.08 | 4:26.48 | 174908 | 194905
11 | 43:18.56 | 4:35.55 | 194906 | 215585
12 | 47:54.36 | 3:39.25 | 215586 | 232035

Track 1

Filename E:\DownLoad\SoundTrack_Stealing Beauty\01. Hoover – 2 Wicky.wav

Pre-gap length 0:00:02.00

Peak level 85.0 %
Track quality 100.0 %
Test CRC 958BCF60
Copy CRC 958BCF60
Copy OK

Track 2

Filename E:\DownLoad\SoundTrack_Stealing Beauty\02. Portishead – Glory Box.wav

Peak level 88.8 %
Track quality 99.9 %
Test CRC 31EE0095
Copy CRC 31EE0095
Copy OK

Track 3

Filename E:\DownLoad\SoundTrack_Stealing Beauty\03. Axiom Funk – If 6 Was 9.wav

Peak level 87.3 %
Track quality 100.0 %
Test CRC A6D501A4
Copy CRC A6D501A4
Copy OK

Track 4

Filename E:\DownLoad\SoundTrack_Stealing Beauty\04. John Lee Hooker – Annie Mae.wav

Peak level 87.1 %
Track quality 99.9 %
Test CRC 93098F05
Copy CRC 93098F05
Copy OK

Track 5

Filename E:\DownLoad\SoundTrack_Stealing Beauty\05. Liz Phair – Rocket Boy.wav

Peak level 87.7 %
Track quality 100.0 %
Test CRC B0F83F1C
Copy CRC B0F83F1C
Copy OK

Track 6

Filename E:\DownLoad\SoundTrack_Stealing Beauty\06. Stevie Wonder – Superstition.wav

Peak level 88.7 %
Track quality 100.0 %
Test CRC 6C4722A3
Copy CRC 6C4722A3
Copy OK

Track 7

Filename E:\DownLoad\SoundTrack_Stealing Beauty\07. Nina Simone – My Baby Just Cares For Me.wav

Peak level 85.2 %
Track quality 100.0 %
Test CRC D7E98402
Copy CRC D7E98402
Copy OK

Track 8

Filename E:\DownLoad\SoundTrack_Stealing Beauty\08. Billie Holiday – Ill Be Seeing You.wav

Peak level 96.5 %
Track quality 100.0 %
Test CRC 4B594F97
Copy CRC 4B594F97
Copy OK

Track 9

Filename E:\DownLoad\SoundTrack_Stealing Beauty\09. Mazzy Star – Rhymes Of An Hour.wav

Peak level 89.7 %
Track quality 100.0 %
Test CRC 2C946D36
Copy CRC 2C946D36
Copy OK

Track 10

Filename E:\DownLoad\SoundTrack_Stealing Beauty\10. Cocteau Twins – Alice.wav

Peak level 84.0 %
Track quality 99.9 %
Test CRC 717F0683
Copy CRC 717F0683
Copy OK

Track 11

Filename E:\DownLoad\SoundTrack_Stealing Beauty\11. Lori Carson – You Won't Fall.wav

Peak level 87.0 %
Track quality 100.0 %
Test CRC 293FDAFF
Copy CRC 293FDAFF
Copy OK

Track 12

Filename E:\DownLoad\SoundTrack_Stealing Beauty\12. Sam Phillips – I Need Love.wav

Peak level 88.1 %
Track quality 100.0 %
Test CRC 61286901
Copy CRC 61286901
Copy OK

No errors occurred

End of status report


Трекер:  [ 08-Июл-2011 13:10 ]

  

Скачать .torrent

Размер .torrent файла 15 KB


Размер: 338 MB
Хэш (hash) релиза: 6b00c34ded5ccc1bb9d47e4c2ad4b47d17f6d3fd

Еще никто не оставлял запись к записи скачать торрент Stealing Beauty Ускользающая красота - 1996, FLAC . Будь первым!

!Обратная связь