Скачать через торрент музыку Joe Hisaishi - HANA-BI - 1998, FLAC бесплатно без регистрации torrent

Если у вас наблюдаются проблемы со скриншотами, переходом по ссылками, скачиванием торрентов - проблемы в блокировщике рекламы AdBlock. #хорошегоДня!


Статистика раздачи
Размер:  204 MB   |    Зарегистрирован:  6 лет 5 месяцев   |    .torrent скачан:  37 раз   |   
Раздают:  1  
   
Загрузка...
 
Автор Сообщение

Galfimbul

avatar Galfimbul


Joe Hisaishi - HANA-BI

Жанр: Soundtrack
Год выпуска диска: 1998
Производитель диска: Germany
Аудио кодек: FLAC
Тип рипа: image+.cue
Битрейт аудио: lossless
Продолжительность: 42:19
Трэклист:
01. Hana-bi (3:45)
02. Angel (2:44)
03. Sea of Blue (3:32)
04. ... and Alone (2:32)
05. Ever Love (2:18)
06. Painters (5:59)
07. Smile and Smile (2:58)
08. Heaven's Gate (5:01)
09. Tenderness (2:34)
10. Thank You... for Everything (7:13)
11. Hana-bi (Reprise) (3:42)
Музыка к фильму "Нana-Bi"(в российском прокате "Фейерверк").Режиссёр Такеши Китано.Награда японской киноакадемии в номинации «Лучшая музыка к фильму» в 1997 году.Оригинал.Сканы 400dpi.Рип мой.

 
Exact Audio Copy V0.99 prebeta 4 from 23. January 2008

EAC extraction logfile from 18. June 2009, 11:43

Joe Hisaishi / HANA-BI

Used drive : PIONEER DVD-RW DVR-215D Adapter: 2 ID: 1

Read mode : SecureUtilize accurate stream : YesDefeat audio cache : YesMake use of C2 pointers : No

Read offset correction : 48Overread into Lead-In and Lead-Out : NoFill up missing offset samples with silence : YesDelete leading and trailing silent blocks : NoNull samples used in CRC calculations : YesUsed interface : Installed external ASPI interface

Used output format : Internal WAV RoutinesSample format : 44.100 Hz; 16 Bit; Stereo

TOC of the extracted CD

Track | Start | Length | Start sector | End sector --------------------------------------------------------- 1 | 0:00.37 | 3:45.32 | 37 | 16943 2 | 3:45.69 | 2:44.08 | 16944 | 29251 3 | 6:30.02 | 3:32.07 | 29252 | 45158 4 | 10:02.09 | 2:31.45 | 45159 | 56528 5 | 12:33.54 | 2:17.48 | 56529 | 66851 6 | 14:51.27 | 5:59.32 | 66852 | 93808 7 | 20:50.59 | 2:58.20 | 93809 | 107178 8 | 23:49.04 | 5:01.28 | 107179 | 129781 9 | 28:50.32 | 2:33.55 | 129782 | 141311 10 | 31:24.12 | 7:12.47 | 141312 | 173758 11 | 38:36.59 | 3:42.15 | 173759 | 190423

Range status and errors

Selected range

Filename D:\Music\Joe Hisaishi - HANA-BI\Joe Hisaishi - HANA-BI.wav

Peak level 99.2 % Range quality 100.0 % Test CRC F3756837 Copy CRC F3756837 Copy OK

No errors occurred

AccurateRip summary

Track 1 not present in databaseTrack 2 not present in databaseTrack 3 not present in databaseTrack 4 not present in databaseTrack 5 not present in databaseTrack 6 not present in databaseTrack 7 not present in databaseTrack 8 not present in databaseTrack 9 not present in databaseTrack 10 not present in databaseTrack 11 not present in database

None of the tracks are present in the AccurateRip database

End of status report


Трекер:  [ 08-Июл-2011 13:33 ]

  

Скачать .torrent

Размер .torrent файла 17 KB


Размер: 204 MB
Хэш (hash) релиза: 5d50c075f6b9f3e317f2560d637f5abf623bc747

Еще никто не оставлял запись к записи скачать торрент Joe Hisaishi - HANA-BI - 1998, FLAC . Будь первым!

!Обратная связь