Скачать через торрент музыку Cinema Collection - Alain Delon бесплатно без регистрации torrent

Если у вас наблюдаются проблемы со скриншотами, переходом по ссылками, скачиванием торрентов - проблемы в блокировщике рекламы AdBlock. #хорошегоДня!


Статистика раздачи
Размер:  295 MB   |    Зарегистрирован:  6 лет 5 месяцев   |    .torrent скачан:  43 раза   |   
Раздают:  1  
   
Загрузка...
 
Автор Сообщение

Galfimbul

avatar Galfimbul


Cinema Collection - Alain Delon - 2007
Жанр: Soundtrack
Год выпуска диска: 2007
Производитель диска: Россия
Аудио кодек: FLAC
Тип рипа: (image + .cue)
Битрейт аудио: lossless
Продолжительность: 57.37 min.
Трэклист:


01 Les Felins
02 Overture
03 Laetitia
04 Le Cercle Rouge
05 Les Souvenirs
06 Manu et Roland
07 Addio di Nadia
08 Doucement Les Basses
09 Jeff et Jeanne
10 Terra Lontana
11 To You Mi Chica
12 Zorro's Arrival
13 Le Samourai
14 Le Chat
15 Theme de Gino
16 Yang-Tse-Kiang
17 Les Granges Brulees
18 La Blessure
19 La Gabbia
20 Plein Soleil
21 Les Aveturiers
22 Un Giorno in Piu'- Il Passato
23 La Piscine
Exact Audio Copy V0.99 prebeta 3 from 28. July 2007

Отчёт EAC об извлечении, выполненном 19. июня 2008, 12:46

Alain Delon / Cinema Collection

Дисковод: HL-DT-STDVDRAM GSA-E40N Adapter: 2 ID: 0

Режим чтения : Достоверность
Использование точного потока : Да
Отключение кэша аудио : Да
Использование указателей C2 : Нет

Коррекция смещения при чтении : 667
Способность читать области Lead-in и Lead-out : Нет
Заполнение пропущенных сэмплов тишиной : Да
Удаление блоков с тишиной в начале и конце : Нет
При вычислениях CRC использовались нулевые сэмплы : Да
Интерфейс : Встроенный Win32-интерфейс для Win NT/2000

Выходной формат : Пользовательский кодировщик
Выбранный битрейт : 768 kBit/s
Качество : Высокий
Добавление ID3-тэга : Нет
Утилита сжатия : C:\Program Files\Exact Audio Copy\FLAC\FLAC.EXE
Дополнительные параметры : -6 -V -T "ARTIST=%a" -T "TITLE=%t" -T "ALBUM=%g" -T "DATE=%y" -T "TRACKNUMBER=%n" -T "GENRE=%m" -T "COMMENT=%e" %s -o %d

TOC извлечённого CD

Трек | Старт | Длительность | Начальный сектор | Конечный сектор
---------------------------------------------------------------------
1 | 0:00.00 | 1:54.63 | 0 | 8612
2 | 1:54.63 | 2:12.62 | 8613 | 18574
3 | 4:07.50 | 2:23.05 | 18575 | 29304
4 | 6:30.55 | 2:46.43 | 29305 | 41797
5 | 9:17.23 | 2:15.17 | 41798 | 51939
6 | 11:32.40 | 1:18.12 | 51940 | 57801
7 | 12:50.52 | 2:16.24 | 57802 | 68025
8 | 15:07.01 | 3:31.63 | 68026 | 83913
9 | 18:38.64 | 2:16.02 | 83914 | 94115
10 | 20:54.66 | 2:44.63 | 94116 | 106478
11 | 23:39.54 | 2:53.08 | 106479 | 119461
12 | 26:32.62 | 3:17.56 | 119462 | 134292
13 | 29:50.43 | 2:05.52 | 134293 | 143719
14 | 31:56.20 | 2:18.52 | 143720 | 154121
15 | 34:14.72 | 1:21.68 | 154122 | 160264
16 | 35:36.65 | 2:21.05 | 160265 | 170844
17 | 37:57.70 | 2:45.52 | 170845 | 183271
18 | 40:43.47 | 1:47.34 | 183272 | 191330
19 | 42:31.06 | 2:04.33 | 191331 | 200663
20 | 44:35.39 | 3:22.51 | 200664 | 215864
21 | 47:58.15 | 2:46.19 | 215865 | 228333
22 | 50:44.34 | 2:03.55 | 228334 | 237613
23 | 52:48.14 | 4:49.54 | 237614 | 259342

Характеристики диапазона извлечения и сообщения об ошибках

Выбранный диапазон

Имя файла D:\Музыка\Torrents\Alain Delon - Cinema Collection\Alain Delon - Cinema Collection.wav

Пиковый уровень 100.0 %
Качество диапазона 100.0 %
CRC копии 802176BA
Копирование... OK

Ошибок не произошло

Конец отчёта


Трекер:  [ 08-Июл-2011 13:32 ]

  

Скачать .torrent

Размер .torrent файла 12 KB


Размер: 295 MB
Хэш (hash) релиза: 854a53978293d1df04777bf3519df5de0a4998e7

Еще никто не оставлял запись к записи скачать торрент Cinema Collection - Alain Delon . Будь первым!

!Обратная связь