Скачать через торрент музыку Eis am Stiel, Lemon Popsicle, Eskimo Limon, Hot Bubblegum Горячая жевательная резинка бесплатно без регистрации torrent

Если у вас наблюдаются проблемы со скриншотами, переходом по ссылками, скачиванием торрентов - проблемы в блокировщике рекламы AdBlock. #хорошегоДня!


Статистика раздачи
Размер:  5.43 GB   |    Зарегистрирован:  6 лет 5 месяцев   |    .torrent скачан:  42 раза   |   
Раздают:  1  
   
Загрузка...
 
Автор Сообщение

Galfimbul

avatar Galfimbul


Eis am Stiel, Lemon Popsicle, Eskimo Limon, Hot Bubblegum / Горячая жевательная резинка

Жанр: Soundtrack
Год выпуска диска: 1978-2001
Производитель диска: Germany,EU,Israel
Аудио кодек: FLAC
Тип рипа: image+.cue
Битрейт аудио: lossless
1978,1979 - Ariola 174268
Продолжительность:44:04 + 42:35
CD1

01. Bill Haley / Rock Around the Clock 02:13
02. Danny and The Juniors / At the Hop 02:33
03. Paul Anka / Diana 02:26
04. Big Bopper / Chantilly Lace 02:33
05. Little Richard / Tutti Frutti 02:26
06. Bobby Vinton / Mr. Lonely 02:43
07. The Cordetts / Lollipop 02:10
08. Bruce Channel / Hey, Baby 02:21
09. Brothers Four / Green Fields 02:57
10. Paul Anka / Put Your Head on My Shoulder 02:41
11. Brian Hyland / Sealed with a Kiss 02:43
12. Paul Evans and The Curls / Seven Little Girls 02:09
13. Frankie Lane / My Little One 02:00
14. Paul And Paula / Hey Paula 02:32
15. Domenico Modugno / Volare 02:49
16. The Shadows / FBI 02:22
17. John Morris / Witch Doctor 01:37
18. Marino Marini / Come Prima 02:41
Exact Audio Copy V0.99 prebeta 4 from 23. January 2008

EAC Auslese-Logdatei vom 1. August 2009, 23:46

Diverse / Eis am Stiel (CD 1)

Benutztes Laufwerk : HL-DT-STDVD-ROM GDR-H30N Adapter: 0 ID: 1

Lesemodus : Sicher
Benutze Accurate Stream : Ja
Audio Puffer abgeschaltet : Ja
Benutze C2 Fehlerinformationen : Nein

Leseoffset Korrektur : 6
Überlesen in das Lead-In und Lead-Out : Nein
Fülle fehlende Offsetsample mit Stille auf : Ja
Lösche führende und nachfolgende stille Blöcke : Nein
Null Samples gehen in CRC Berechnungen ein : Ja
Benutzte Schnittstelle : Installierte externe ASPI Schnittstelle

Benutztes Ausgabeformat : Interne WAV Routinen
Sampleformat : 44.100 Hz; 16 Bit; Stereo

TOC der ausgelesenen CD

Track | Start | Länge | Startsektor | Endsektor
-------------------------------------------------------
1 | 0:00.33 | 2:13.00 | 33 | 10007
2 | 2:13.33 | 2:33.25 | 10008 | 21507
3 | 4:46.58 | 2:26.50 | 21508 | 32507
4 | 7:13.33 | 2:33.50 | 32508 | 44032
5 | 9:47.08 | 2:26.00 | 44033 | 54982
6 | 12:13.08 | 2:43.25 | 54983 | 67232
7 | 14:56.33 | 2:10.00 | 67233 | 76982
8 | 17:06.33 | 2:21.50 | 76983 | 87607
9 | 19:28.08 | 2:57.00 | 87608 | 100882
10 | 22:25.08 | 2:41.67 | 100883 | 113024
11 | 25:07.00 | 2:43.08 | 113025 | 125257
12 | 27:50.08 | 2:09.50 | 125258 | 134982
13 | 29:59.58 | 2:00.50 | 134983 | 144032
14 | 32:00.33 | 2:32.25 | 144033 | 155457
15 | 34:32.58 | 2:49.50 | 155458 | 168182
16 | 37:22.33 | 2:22.50 | 168183 | 178882
17 | 39:45.08 | 1:37.25 | 178883 | 186182
18 | 41:22.33 | 2:41.25 | 186183 | 198282

Bereichsstatus und Fehler

Gewählter Bereich

Dateiname K:\Lemon Popsicle Soundtrack\Eis am Stiel - 1+2\Diverse - Eis am Stiel (CD 1).wav

Spitzenpegel 86.3 %
Bereichsqualität 100.0 %
Kopie CRC C9DD4F29
Kopie OK

Keine Fehler aufgetreten

AccurateRip Übersicht

Track 1 akkurat gelesen (Zuversicht 5) [2EC0A407]
Track 2 akkurat gelesen (Zuversicht 5) [8C5B3741]
Track 3 akkurat gelesen (Zuversicht 5) [0FC56319]
Track 4 akkurat gelesen (Zuversicht 5) [BF98983C]
Track 5 akkurat gelesen (Zuversicht 5) [7C9C4848]
Track 6 akkurat gelesen (Zuversicht 5) [C36945F6]
Track 7 akkurat gelesen (Zuversicht 5) [D3126642]
Track 8 akkurat gelesen (Zuversicht 5) [DAFC9B36]
Track 9 akkurat gelesen (Zuversicht 5) [B69B63DB]
Track 10 akkurat gelesen (Zuversicht 5) [566FBB83]
Track 11 akkurat gelesen (Zuversicht 5) [EEBF9C20]
Track 12 akkurat gelesen (Zuversicht 5) [E4BA9A25]
Track 13 akkurat gelesen (Zuversicht 5) [AA3AB67B]
Track 14 akkurat gelesen (Zuversicht 5) [B066B170]
Track 15 akkurat gelesen (Zuversicht 5) [28B3F0A3]
Track 16 akkurat gelesen (Zuversicht 5) [F22C0B10]
Track 17 akkurat gelesen (Zuversicht 5) [C3D5DEC2]
Track 18 akkurat gelesen (Zuversicht 5) [E9253957]

Alle Tracks wurden akkurat gelesen

Ende des Statusreports
CD2

01. Debbie Reynolds / Tammy 03:03
02. Jimmie Rodgers / Kisses Sweeter Than Wine 02:19
03. Brian Hyland / Itsy Bitsy Teeny 02:22
04. The Platters / Smoke Gets In Your Eyes 02:35
05. Gene Vincent / Be Bop A Lula 02:35
06. Brenda Lee / I´m Sorry 02:40
07. Del Shannon / Runaway 02:26
08. The Percy Faith Orchestra / A Summer Place 02:22
09. Jerry Lee Lewis / High School Confidential 02:30
10. Litttle Richard / Lucille 02:27
11. The Teddy Bears / To Know Him Is To Love Him 02:22
12. The Champs / Tequila 02:12
13. Chubby Chekker / Let´s Twist Again 02:22
14. Santo & Johnny / Sleepwalk 02:23
15. Brenda Lee / All Alone Am I 02:44
16. Frankie Avalon / Why 02:30
17. The Drifters / Save The Last Dance For Me 02:35
Exact Audio Copy V0.99 prebeta 4 from 23. January 2008

EAC Auslese-Logdatei vom 1. August 2009, 23:53

Various / Eis am Stiel (Teil 2)

Benutztes Laufwerk : HL-DT-STDVD-ROM GDR-H30N Adapter: 0 ID: 1

Lesemodus : Sicher
Benutze Accurate Stream : Ja
Audio Puffer abgeschaltet : Ja
Benutze C2 Fehlerinformationen : Nein

Leseoffset Korrektur : 6
Überlesen in das Lead-In und Lead-Out : Nein
Fülle fehlende Offsetsample mit Stille auf : Ja
Lösche führende und nachfolgende stille Blöcke : Nein
Null Samples gehen in CRC Berechnungen ein : Ja
Benutzte Schnittstelle : Installierte externe ASPI Schnittstelle

Benutztes Ausgabeformat : Interne WAV Routinen
Sampleformat : 44.100 Hz; 16 Bit; Stereo

TOC der ausgelesenen CD

Track | Start | Länge | Startsektor | Endsektor
-------------------------------------------------------
1 | 0:00.33 | 3:03.50 | 33 | 13807
2 | 3:04.08 | 2:19.25 | 13808 | 24257
3 | 5:23.33 | 2:22.50 | 24258 | 34957
4 | 7:46.08 | 2:35.70 | 34958 | 46652
5 | 10:22.03 | 2:35.05 | 46653 | 58282
6 | 12:57.08 | 2:40.50 | 58283 | 70332
7 | 15:37.58 | 2:26.50 | 70333 | 81332
8 | 18:04.33 | 2:22.25 | 81333 | 92007
9 | 20:26.58 | 2:30.00 | 92008 | 103257
10 | 22:56.58 | 2:27.25 | 103258 | 114307
11 | 25:24.08 | 2:22.50 | 114308 | 125007
12 | 27:46.58 | 2:12.25 | 125008 | 134932
13 | 29:59.08 | 2:22.50 | 134933 | 145632
14 | 32:21.58 | 2:23.50 | 145633 | 156407
15 | 34:45.33 | 2:44.50 | 156408 | 168757
16 | 37:30.08 | 2:30.00 | 168758 | 180007
17 | 40:00.08 | 2:35.25 | 180008 | 191657

Bereichsstatus und Fehler

Gewählter Bereich

Dateiname K:\Lemon Popsicle Soundtrack\Eis am Stiel - 1+2\Various - Eis am Stiel (Teil 2).wav

Spitzenpegel 87.1 %
Bereichsqualität 100.0 %
Kopie CRC A8FB6790
Kopie OK

Keine Fehler aufgetreten

AccurateRip Übersicht

Track 1 akkurat gelesen (Zuversicht 2) [C8E5ED54]
Track 2 akkurat gelesen (Zuversicht 2) [9952560B]
Track 3 akkurat gelesen (Zuversicht 2) [D7EBA11B]
Track 4 akkurat gelesen (Zuversicht 2) [438DF7DC]
Track 5 akkurat gelesen (Zuversicht 2) [758B510E]
Track 6 akkurat gelesen (Zuversicht 2) [E97824FB]
Track 7 akkurat gelesen (Zuversicht 2) [BD449FD6]
Track 8 akkurat gelesen (Zuversicht 2) [035E8943]
Track 9 akkurat gelesen (Zuversicht 2) [740F9BDD]
Track 10 akkurat gelesen (Zuversicht 2) [86367F81]
Track 11 akkurat gelesen (Zuversicht 2) [0C684477]
Track 12 akkurat gelesen (Zuversicht 2) [411C5C73]
Track 13 akkurat gelesen (Zuversicht 2) [31152F55]
Track 14 akkurat gelesen (Zuversicht 2) [06FD406C]
Track 15 akkurat gelesen (Zuversicht 2) [70F2720B]
Track 16 akkurat gelesen (Zuversicht 2) [5C8FA810]
Track 17 akkurat gelesen (Zuversicht 2) [BF2EED31]

Alle Tracks wurden akkurat gelesen

Ende des Statusreports
1981 Polydor 835854-2
Продолжительность: 50:30

01. Bill Haley / Rip it up 02:24
02. The Chordettes / Lollipop 02:10
03. Johnny Tillotson / Poetry in motion 02:31
04. Frankie Avalon / Why 02:38
05. Little Richard / Long tall Sally 02:09
06. Ritchie Valens / Donna 02:23
07. Ray Peterson / Tell Laura I love her 02:50
08. Duane Eddy / Rebel rouser 02:18
09. Bobby Vee / Devil or angel 02:21
10. The Four Aces / Love is a many splendored thing 03:02
11. Bill Haley / Shake, rattle and roll 03:23
12. Little Richard / Tutti Frutti 02:25
13. Ritchie Valens / La bamba 02:05
14. The Teddy Bears / To know him is to love him 02:24
15. Chuck Berry / Johnny B. Goode 02:43
16. The Four Aces / Three coins in the fountain 03:09
17. The Fleetwoods / Come softly to me 02:31
18. The Drifters / Dance with me 02:24
19. The Diamonds / Little darlin' 02:09
20. The Shirelles / Dedicated to the one I love 02:20
Exact Audio Copy V0.99 prebeta 4 from 23. January 2008

EAC Auslese-Logdatei vom 2. August 2009, 11:44

Various / Eis am Stiel - Vol. 03

Benutztes Laufwerk : HL-DT-STDVD-ROM GDR-H30N Adapter: 0 ID: 1

Lesemodus : Sicher
Benutze Accurate Stream : Ja
Audio Puffer abgeschaltet : Ja
Benutze C2 Fehlerinformationen : Nein

Leseoffset Korrektur : 6
Überlesen in das Lead-In und Lead-Out : Nein
Fülle fehlende Offsetsample mit Stille auf : Ja
Lösche führende und nachfolgende stille Blöcke : Nein
Null Samples gehen in CRC Berechnungen ein : Ja
Benutzte Schnittstelle : Installierte externe ASPI Schnittstelle

Benutztes Ausgabeformat : Interne WAV Routinen
Sampleformat : 44.100 Hz; 16 Bit; Stereo

TOC der ausgelesenen CD

Track | Start | Länge | Startsektor | Endsektor
-------------------------------------------------------
1 | 0:00.33 | 2:24.05 | 33 | 10837
2 | 2:24.38 | 2:10.35 | 10838 | 20622
3 | 4:34.73 | 2:31.50 | 20623 | 31997
4 | 7:06.48 | 2:38.72 | 31998 | 43919
5 | 9:45.45 | 2:09.18 | 43920 | 53612
6 | 11:54.63 | 2:23.45 | 53613 | 64382
7 | 14:18.33 | 2:50.20 | 64383 | 77152
8 | 17:08.53 | 2:18.47 | 77153 | 87549
9 | 19:27.25 | 2:21.38 | 87550 | 98162
10 | 21:48.63 | 3:02.37 | 98163 | 111849
11 | 24:51.25 | 3:23.03 | 111850 | 127077
12 | 28:14.28 | 2:25.47 | 127078 | 137999
13 | 30:40.00 | 2:05.70 | 138000 | 147444
14 | 32:45.70 | 2:24.30 | 147445 | 158274
15 | 35:10.25 | 2:43.50 | 158275 | 170549
16 | 37:54.00 | 3:09.33 | 170550 | 184757
17 | 41:03.33 | 2:31.70 | 184758 | 196152
18 | 43:35.28 | 2:24.32 | 196153 | 206984
19 | 45:59.60 | 2:09.53 | 206985 | 216712
20 | 48:09.38 | 2:20.45 | 216713 | 227257

Bereichsstatus und Fehler

Gewählter Bereich

Dateiname K:\Lemon Popsicle Soundtrack\Eis am Stiel - 3\Various - Eis am Stiel - Vol. 03.wav

Spitzenpegel 90.9 %
Bereichsqualität 99.9 %
Kopie CRC 6FA0847D
Kopie OK

Keine Fehler aufgetreten

AccurateRip Übersicht

Track 1 kann nicht als akkurat verifiziert werden (Zuversicht 4) [C996D185], AccurateRip lieferte [E7F2A65C]
Track 2 kann nicht als akkurat verifiziert werden (Zuversicht 4) [83EDE5A6], AccurateRip lieferte [D64F2B19]
Track 3 kann nicht als akkurat verifiziert werden (Zuversicht 4) [A2D0C3B6], AccurateRip lieferte [DD7521AB]
Track 4 kann nicht als akkurat verifiziert werden (Zuversicht 4) [658C56A2], AccurateRip lieferte [F870CB7F]
Track 5 kann nicht als akkurat verifiziert werden (Zuversicht 4) [E9ED3F35], AccurateRip lieferte [25DCDF0B]
Track 6 kann nicht als akkurat verifiziert werden (Zuversicht 4) [E897446F], AccurateRip lieferte [A8B9DD65]
Track 7 kann nicht als akkurat verifiziert werden (Zuversicht 4) [4948D5C7], AccurateRip lieferte [DE9F8BBE]
Track 8 kann nicht als akkurat verifiziert werden (Zuversicht 4) [E2E2B4A5], AccurateRip lieferte [F4432EAE]
Track 9 kann nicht als akkurat verifiziert werden (Zuversicht 4) [AEEE5D88], AccurateRip lieferte [304DE86D]
Track 10 kann nicht als akkurat verifiziert werden (Zuversicht 4) [8FFBB3E0], AccurateRip lieferte [395F1E06]
Track 11 kann nicht als akkurat verifiziert werden (Zuversicht 4) [59F1DB15], AccurateRip lieferte [A7755962]
Track 12 kann nicht als akkurat verifiziert werden (Zuversicht 4) [5DEED689], AccurateRip lieferte [18A48DEA]
Track 13 kann nicht als akkurat verifiziert werden (Zuversicht 5) [69FFB7BF], AccurateRip lieferte [DA422406]
Track 14 kann nicht als akkurat verifiziert werden (Zuversicht 4) [5B8A82D0], AccurateRip lieferte [5B4B84C4]
Track 15 kann nicht als akkurat verifiziert werden (Zuversicht 4) [F28E3D29], AccurateRip lieferte [BAB37B8B]
Track 16 kann nicht als akkurat verifiziert werden (Zuversicht 4) [0863A5C2], AccurateRip lieferte [0FEAABAF]
Track 17 kann nicht als akkurat verifiziert werden (Zuversicht 4) [275FB830], AccurateRip lieferte [F7246CB4]
Track 18 kann nicht als akkurat verifiziert werden (Zuversicht 4) [AE26C730], AccurateRip lieferte [0D8EAEA4]
Track 19 kann nicht als akkurat verifiziert werden (Zuversicht 4) [3BFFD739], AccurateRip lieferte [CD9F6678]
Track 20 kann nicht als akkurat verifiziert werden (Zuversicht 4) [DF936065], AccurateRip lieferte [57BDEF4D]

Kein Track konnte als akkurat verifiziert werden
Es könnte sich um eine andere Pressung als von der in der Datenbank vorhandenen handeln

Ende des Statusreports
1987 BMG Ariola 258437
Продолжительность: 49:22

01. Sandy Nelson / Teen Beat 02:24
02. Curtis Lee / Pretty Little Angel Eyes 02:40
03. The Crests / Sixteen Candles 02:51
04. Little Eva / The Locomotion 02:17
05. The Diamonds / Little Darlin' 02:09
06. Chuck Berry / Sweet Little Sixteen 03:03
07. The Fleetwoods / Mr. Blue 02:29
08. Little Richard / The Girl Can't Help It 02:27
09. Bill Justis / Raunchy 02:21
10. The Platters / Twilight Time 02:33
11. Dion / The Wanderer 02:37
12. Jerry Lee Lewis / Be Bop-A-Lula 02:29
13. Fabian / Tiger 02:28
14. Fontella Bass / Rescue Me 02:53
15. The Coasters / Yakety Yak 01:45
16. Chuck Berry / Maybelline 02:20
17. Skeeter Davis / The End Of The World 02:38
18. The Chiffons / He So Fine 01:53
19. Little Richard / Keep A Knockin' 02:11
20. The Cherokees / Apache 02:51
Exact Audio Copy V0.99 prebeta 4 from 23. January 2008

EAC Auslese-Logdatei vom 2. August 2009, 11:53

Various / Eis Am Stiel 5.Teil - Die Große Liebe

Benutztes Laufwerk : HL-DT-STDVD-ROM GDR-H30N Adapter: 0 ID: 1

Lesemodus : Sicher
Benutze Accurate Stream : Ja
Audio Puffer abgeschaltet : Ja
Benutze C2 Fehlerinformationen : Nein

Leseoffset Korrektur : 6
Überlesen in das Lead-In und Lead-Out : Nein
Fülle fehlende Offsetsample mit Stille auf : Ja
Lösche führende und nachfolgende stille Blöcke : Nein
Null Samples gehen in CRC Berechnungen ein : Ja
Benutzte Schnittstelle : Installierte externe ASPI Schnittstelle

Benutztes Ausgabeformat : Interne WAV Routinen
Sampleformat : 44.100 Hz; 16 Bit; Stereo

TOC der ausgelesenen CD

Track | Start | Länge | Startsektor | Endsektor
-------------------------------------------------------
1 | 0:00.33 | 2:24.00 | 33 | 10832
2 | 2:24.33 | 2:40.00 | 10833 | 22832
3 | 5:04.33 | 2:51.00 | 22833 | 35657
4 | 7:55.33 | 2:17.37 | 35658 | 45969
5 | 10:12.70 | 2:09.38 | 45970 | 55682
6 | 12:22.33 | 3:03.00 | 55683 | 69407
7 | 15:25.33 | 2:29.00 | 69408 | 80582
8 | 17:54.33 | 2:27.00 | 80583 | 91607
9 | 20:21.33 | 2:21.37 | 91608 | 102219
10 | 22:42.70 | 2:33.00 | 102220 | 113694
11 | 25:15.70 | 2:37.00 | 113695 | 125469
12 | 27:52.70 | 2:29.38 | 125470 | 136682
13 | 30:22.33 | 2:28.37 | 136683 | 147819
14 | 32:50.70 | 2:53.38 | 147820 | 160832
15 | 35:44.33 | 1:45.00 | 160833 | 168707
16 | 37:29.33 | 2:20.00 | 168708 | 179207
17 | 39:49.33 | 2:38.00 | 179208 | 191057
18 | 42:27.33 | 1:53.00 | 191058 | 199532
19 | 44:20.33 | 2:11.00 | 199533 | 209357
20 | 46:31.33 | 2:51.00 | 209358 | 222182

Bereichsstatus und Fehler

Gewählter Bereich

Dateiname K:\Lemon Popsicle Soundtrack\Eis am Stiel - 5\Various - Eis Am Stiel 5.Teil - Die Große Liebe.wav

Spitzenpegel 91.9 %
Bereichsqualität 100.0 %
Kopie CRC 913B6109
Kopie OK

Keine Fehler aufgetreten

AccurateRip Übersicht

Track 1 akkurat gelesen (Zuversicht 4) [880A180D]
Track 2 akkurat gelesen (Zuversicht 4) [B59561AF]
Track 3 akkurat gelesen (Zuversicht 4) [D15ADE9A]
Track 4 akkurat gelesen (Zuversicht 4) [7E815CD1]
Track 5 akkurat gelesen (Zuversicht 4) [088D3F84]
Track 6 akkurat gelesen (Zuversicht 4) [5FC1392E]
Track 7 akkurat gelesen (Zuversicht 4) [4740F3BE]
Track 8 akkurat gelesen (Zuversicht 4) [8D79BCCF]
Track 9 akkurat gelesen (Zuversicht 4) [FF234A0D]
Track 10 akkurat gelesen (Zuversicht 4) [0D94CEBB]
Track 11 akkurat gelesen (Zuversicht 4) [AA3FE8C8]
Track 12 akkurat gelesen (Zuversicht 4) [9489DB16]
Track 13 akkurat gelesen (Zuversicht 4) [6D16E57C]
Track 14 akkurat gelesen (Zuversicht 4) [590F45DC]
Track 15 akkurat gelesen (Zuversicht 4) [67E4F924]
Track 16 akkurat gelesen (Zuversicht 4) [70D7B114]
Track 17 akkurat gelesen (Zuversicht 4) [EBC81783]
Track 18 akkurat gelesen (Zuversicht 4) [FED8C610]
Track 19 akkurat gelesen (Zuversicht 4) [0F58379A]
Track 20 akkurat gelesen (Zuversicht 4) [040C6118]

Alle Tracks wurden akkurat gelesen

Ende des Statusreports
1985 Ariola 257042
Продолжительность: 38:32

01. Frankie Ford / Sea cruiser 02:42
02. Brook Benton / Baby, you got what it takes 02:53
03. Jan & Dean / Surf City 02:28
04. Duane Eddy / Because they're young 02:03
05. Dave ''Baby'' Cortes / Green onions 03:03
06. The Yardbirds / For your love 02:28
07. Duane Eddy / Forty miles of bad road 02:07
08. Joey Dee and The Starlighters / Peppermint Twist 02:04
09. Little Richard / Bama Lama Loe 02:14
10. Brook Benton / It's just a matter of time 02:30
11. Jerry Lee Lewis / Great balls of fire 01:53
12. Chubby Checker / Slow twistin' 02:43
13. Dee Dee Sharp / Mashed potatoe time 02:38
14. Swinging Blue Jeans / Hippy Hippy Shake 01:45
15. George Hamilton IV / Why don't they understand 02:32
16. Joey Dee and The Starlighters / Shout 02:20
Exact Audio Copy V0.99 prebeta 4 from 23. January 2008

EAC Auslese-Logdatei vom 2. August 2009, 11:59

Various Artists / Eis am Stiel - Vol. 06

Benutztes Laufwerk : HL-DT-STDVD-ROM GDR-H30N Adapter: 0 ID: 1

Lesemodus : Sicher
Benutze Accurate Stream : Ja
Audio Puffer abgeschaltet : Ja
Benutze C2 Fehlerinformationen : Nein

Leseoffset Korrektur : 6
Überlesen in das Lead-In und Lead-Out : Nein
Fülle fehlende Offsetsample mit Stille auf : Ja
Lösche führende und nachfolgende stille Blöcke : Nein
Null Samples gehen in CRC Berechnungen ein : Ja
Benutzte Schnittstelle : Installierte externe ASPI Schnittstelle

Benutztes Ausgabeformat : Interne WAV Routinen
Sampleformat : 44.100 Hz; 16 Bit; Stereo

TOC der ausgelesenen CD

Track | Start | Länge | Startsektor | Endsektor
-------------------------------------------------------
1 | 0:00.00 | 2:42.00 | 0 | 12149
2 | 2:42.00 | 2:53.68 | 12150 | 25192
3 | 5:35.68 | 2:28.47 | 25193 | 36339
4 | 8:04.40 | 2:03.65 | 36340 | 45629
5 | 10:08.30 | 3:03.68 | 45630 | 59422
6 | 13:12.23 | 2:28.47 | 59423 | 70569
7 | 15:40.70 | 2:07.10 | 70570 | 80104
8 | 17:48.05 | 2:04.15 | 80105 | 89419
9 | 19:52.20 | 2:14.28 | 89420 | 99497
10 | 22:06.48 | 2:30.62 | 99498 | 110809
11 | 24:37.35 | 1:53.28 | 110810 | 119312
12 | 26:30.63 | 2:43.50 | 119313 | 131587
13 | 29:14.38 | 2:38.05 | 131588 | 143442
14 | 31:52.43 | 1:45.65 | 143443 | 151382
15 | 33:38.33 | 2:32.45 | 151383 | 162827
16 | 36:11.03 | 2:20.62 | 162828 | 173389

Bereichsstatus und Fehler

Gewählter Bereich

Dateiname K:\Lemon Popsicle Soundtrack\Eis am Stiel - 6\Various Artists - Eis am Stiel - Vol. 06.wav

Spitzenpegel 100.0 %
Bereichsqualität 100.0 %
Kopie CRC E791BF12
Kopie OK

Keine Fehler aufgetreten

AccurateRip Übersicht

Track 1 akkurat gelesen (Zuversicht 1) [7E568672]
Track 2 akkurat gelesen (Zuversicht 1) [EC8C9421]
Track 3 akkurat gelesen (Zuversicht 1) [56F07996]
Track 4 akkurat gelesen (Zuversicht 1) [94A64F7F]
Track 5 akkurat gelesen (Zuversicht 1) [22174EF9]
Track 6 akkurat gelesen (Zuversicht 1) [701944D8]
Track 7 akkurat gelesen (Zuversicht 1) [E3608A31]
Track 8 akkurat gelesen (Zuversicht 1) [4D7BA18D]
Track 9 akkurat gelesen (Zuversicht 1) [EEEE0F1B]
Track 10 akkurat gelesen (Zuversicht 1) [506A8DE8]
Track 11 akkurat gelesen (Zuversicht 1) [D678339B]
Track 12 akkurat gelesen (Zuversicht 1) [86775B96]
Track 13 akkurat gelesen (Zuversicht 1) [6ADF1BEC]
Track 14 akkurat gelesen (Zuversicht 1) [4F8E1AA9]
Track 15 akkurat gelesen (Zuversicht 1) [8F2F9FF1]
Track 16 akkurat gelesen (Zuversicht 1) [59F4D72C]

Alle Tracks wurden akkurat gelesen

Ende des Statusreports
1988 CBS 462952 2
Продолжительность: 45:06

01. Eddie Cochran / Summertime Blues 01:56
02. Chubby Checker / Let's twist again 02:22
03. Chris Montez / Let's dance 02:18
04. Paul Anka / You are my destiny 02:43
05. Bobby Vinton / Blue velvet 02:48
06. Doris Day / Whatever will be, will be (Que sera, sera) 02:54
07. Fats Domino / My girl Josephine 01:58
08. The Palais All Stars / Mambo No. 1 02:33
09. Little Richard / Long tall sally 02:04
10. Johnny and The Hurricanes / Crossfire 02:24
11. Jerry Lee Lewis / What'd I say 02:24
12. Paul Anka / Lonely boy 02:32
13. Fats Domino / Blueberry Hill 02:19
14. Albert West / Ginny come lately 02:51
15. Guy Mitchell / Heartaches by the number 02:37
16. Caravelli / La cumparsita 02:39
17. Bobby Vinton / Roses are red (my love) 02:38
18. Mitch Miller / The yellow rose of Texas 02:56
Exact Audio Copy V0.99 prebeta 4 from 23. January 2008

EAC Auslese-Logdatei vom 2. August 2009, 12:11

Various / Eis am Stiel - Vol. 08

Benutztes Laufwerk : HL-DT-STDVD-ROM GDR-H30N Adapter: 0 ID: 1

Lesemodus : Sicher
Benutze Accurate Stream : Ja
Audio Puffer abgeschaltet : Ja
Benutze C2 Fehlerinformationen : Nein

Leseoffset Korrektur : 6
Überlesen in das Lead-In und Lead-Out : Nein
Fülle fehlende Offsetsample mit Stille auf : Ja
Lösche führende und nachfolgende stille Blöcke : Nein
Null Samples gehen in CRC Berechnungen ein : Ja
Benutzte Schnittstelle : Installierte externe ASPI Schnittstelle

Benutztes Ausgabeformat : Interne WAV Routinen
Sampleformat : 44.100 Hz; 16 Bit; Stereo

TOC der ausgelesenen CD

Track | Start | Länge | Startsektor | Endsektor
-------------------------------------------------------
1 | 0:00.00 | 1:56.60 | 0 | 8759
2 | 1:56.60 | 2:22.50 | 8760 | 19459
3 | 4:19.35 | 2:18.37 | 19460 | 29846
4 | 6:37.72 | 2:43.38 | 29847 | 42109
5 | 9:21.35 | 2:48.62 | 42110 | 54771
6 | 12:10.22 | 2:54.63 | 54772 | 67884
7 | 15:05.10 | 1:58.37 | 67885 | 76771
8 | 17:03.47 | 2:33.63 | 76772 | 88309
9 | 19:37.35 | 2:04.37 | 88310 | 97646
10 | 21:41.72 | 2:24.13 | 97647 | 108459
11 | 24:06.10 | 2:24.62 | 108460 | 119321
12 | 26:30.72 | 2:32.13 | 119322 | 130734
13 | 29:03.10 | 2:19.62 | 130735 | 141221
14 | 31:22.72 | 2:51.00 | 141222 | 154046
15 | 34:13.72 | 2:37.38 | 154047 | 165859
16 | 36:51.35 | 2:39.62 | 165860 | 177846
17 | 39:31.22 | 2:38.50 | 177847 | 189746
18 | 42:09.72 | 2:56.28 | 189747 | 202974

Bereichsstatus und Fehler

Gewählter Bereich

Dateiname K:\Lemon Popsicle Soundtrack\Eis am Stiel - 8\Various - Eis am Stiel - Vol. 08.wav

Spitzenpegel 100.0 %
Bereichsqualität 99.9 %
Kopie CRC 32F7FF9C
Kopie OK

Keine Fehler aufgetreten

AccurateRip Übersicht

Track 1 akkurat gelesen (Zuversicht 4) [1F4191AA]
Track 2 akkurat gelesen (Zuversicht 4) [45630E47]
Track 3 akkurat gelesen (Zuversicht 4) [69C1C13F]
Track 4 akkurat gelesen (Zuversicht 4) [BA435F97]
Track 5 akkurat gelesen (Zuversicht 4) [766FAE1F]
Track 6 akkurat gelesen (Zuversicht 4) [6A234E8B]
Track 7 akkurat gelesen (Zuversicht 4) [CDB15ABA]
Track 8 akkurat gelesen (Zuversicht 4) [44D650F1]
Track 9 akkurat gelesen (Zuversicht 4) [4C5CEF0C]
Track 10 akkurat gelesen (Zuversicht 4) [96D66AA3]
Track 11 akkurat gelesen (Zuversicht 4) [BC74BB04]
Track 12 akkurat gelesen (Zuversicht 3) [549311C3]
Track 13 akkurat gelesen (Zuversicht 4) [B9809FDE]
Track 14 akkurat gelesen (Zuversicht 4) [98C4343E]
Track 15 akkurat gelesen (Zuversicht 4) [C8057AEC]
Track 16 akkurat gelesen (Zuversicht 4) [F7EE2F8B]
Track 17 akkurat gelesen (Zuversicht 4) [18C6C435]
Track 18 akkurat gelesen (Zuversicht 4) [F98F5593]

Alle Tracks wurden akkurat gelesen

Ende des Statusreports
1995 BMG Ariola 74321 35494 2
Продолжительность: 39:24

01. Bill Haley and His Comets / Rock Around The Clock 02:12
02. Rosemary Squires / Que Srea Sera 02:57
03. Paul Anka / Diana 02:23
04. Big Bopper / Chantilly Lace 02:31
05. Littl Richard / Tutti Frutti 02:25
06. Bobby Vinton / Mr.Lonely 02:41
07. The Chordettes / Lollipop 02:08
08. Bruce Chanel / Hey Baby 02:21
09. Paul Anka / Put Your Head On My Shoulder 02:41
10. Domenico Modugno / Ciao Ciao Bambina 03:05
11. Paul Events and The Curls / Seven Little Girls 02:09
12. Paul and Paula / Hey Paula 02:31
13. Domenico Modugno / Volare 02:48
14. John Morris / Witch Doctor 01:36
15. Marino Marini / Come Prima 02:41
16. Littl Richard / Long Tall Sally 02:08
EAC Auslese-Logdatei vom 3. August 2009, 0:23

Soundtrack / Eis am Stiel - Teil 1

Benutztes Laufwerk : HL-DT-STDVD-ROM GDR-H30N Adapter: 0 ID: 1

Lesemodus : Sicher
Benutze Accurate Stream : Ja
Audio Puffer abgeschaltet : Ja
Benutze C2 Fehlerinformationen : Nein

Leseoffset Korrektur : 6
Überlesen in das Lead-In und Lead-Out : Nein
Fülle fehlende Offsetsample mit Stille auf : Ja
Lösche führende und nachfolgende stille Blöcke : Nein
Null Samples gehen in CRC Berechnungen ein : Ja
Benutzte Schnittstelle : Installierte externe ASPI Schnittstelle

Benutztes Ausgabeformat : Interne WAV Routinen
Sampleformat : 44.100 Hz; 16 Bit; Stereo

TOC der ausgelesenen CD

Track | Start | Länge | Startsektor | Endsektor
-------------------------------------------------------
1 | 0:00.32 | 2:12.50 | 32 | 9981
2 | 2:13.07 | 2:57.38 | 9982 | 23294
3 | 5:10.45 | 2:23.37 | 23295 | 34056
4 | 7:34.07 | 2:31.00 | 34057 | 45381
5 | 10:05.07 | 2:25.25 | 45382 | 56281
6 | 12:30.32 | 2:41.50 | 56282 | 68406
7 | 15:12.07 | 2:08.50 | 68407 | 78056
8 | 17:20.57 | 2:21.25 | 78057 | 88656
9 | 19:42.07 | 2:41.00 | 88657 | 100731
10 | 22:23.07 | 3:05.00 | 100732 | 114606
11 | 25:28.07 | 2:09.00 | 114607 | 124281
12 | 27:37.07 | 2:31.50 | 124282 | 135656
13 | 30:08.57 | 2:48.38 | 135657 | 148294
14 | 32:57.20 | 1:36.12 | 148295 | 155506
15 | 34:33.32 | 2:41.50 | 155507 | 167631
16 | 37:15.07 | 2:08.50 | 167632 | 177281

Bereichsstatus und Fehler

Gewählter Bereich

Dateiname K:\Lemon Popsicle Soundtrack\Lemon Popsicle - 1\Soundtrack - Eis am Stiel - Teil 1.wav

Spitzenpegel 92.1 %
Bereichsqualität 100.0 %
Kopie CRC CAB9D4FA
Kopie OK

Keine Fehler aufgetreten

AccurateRip Übersicht

Track 1 nicht in Datenbank enthalten
Track 2 nicht in Datenbank enthalten
Track 3 nicht in Datenbank enthalten
Track 4 nicht in Datenbank enthalten
Track 5 nicht in Datenbank enthalten
Track 6 nicht in Datenbank enthalten
Track 7 nicht in Datenbank enthalten
Track 8 nicht in Datenbank enthalten
Track 9 nicht in Datenbank enthalten
Track 10 nicht in Datenbank enthalten
Track 11 nicht in Datenbank enthalten
Track 12 nicht in Datenbank enthalten
Track 13 nicht in Datenbank enthalten
Track 14 nicht in Datenbank enthalten
Track 15 nicht in Datenbank enthalten
Track 16 nicht in Datenbank enthalten

Keiner der Tracks ist in der AccurateRip Datenbank vorhanden

Ende des Statusreports
1995 BMG Ariola 74321 35495 2
Продолжительность: 41:01

01. Little Richard / Lucille 02:27
02. The Platters / Only You 02:34
03. Chubby Checker / Let's Twist Again 02:22
04. Del Shannon / Runaway 02:26
05. Jimmy Rodgers / Kisses Sweeter Than Wine 02:19
06. The Percy Faith Orchestra / A Summer Place 02:21
07. Jerry Lee Lewis / Bep Bopa Lula 02:35
08. The Platters / Smoke Gets In Your Eye 02:35
09. Jerry Lee Lewis / Highschool Confidental 02:29
10. The Champs / Tequila 02:12
11. Santo And Johnny / Sleepwack 02:23
12. The Drifters / Save The Last Dance For Me 02:35
13. Frankie Avalon / Why 02:29
14. The Teddy Bears / To Know Him Is To Love Him 02:22
15. The Diamonds / Little Darlin' 02:08
16. The Coasters / Yakety Yak 01:44
17. Ray Peterson / Tell Laura I Love Her 02:53
Exact Audio Copy V0.99 prebeta 4 from 23. January 2008

EAC Auslese-Logdatei vom 3. August 2009, 0:31

Soundtrack / Eis am Stiel - Teil 2

Benutztes Laufwerk : HL-DT-STDVD-ROM GDR-H30N Adapter: 0 ID: 1

Lesemodus : Sicher
Benutze Accurate Stream : Ja
Audio Puffer abgeschaltet : Ja
Benutze C2 Fehlerinformationen : Nein

Leseoffset Korrektur : 6
Überlesen in das Lead-In und Lead-Out : Nein
Fülle fehlende Offsetsample mit Stille auf : Ja
Lösche führende und nachfolgende stille Blöcke : Nein
Null Samples gehen in CRC Berechnungen ein : Ja
Benutzte Schnittstelle : Installierte externe ASPI Schnittstelle

Benutztes Ausgabeformat : Interne WAV Routinen
Sampleformat : 44.100 Hz; 16 Bit; Stereo

TOC der ausgelesenen CD

Track | Start | Länge | Startsektor | Endsektor
-------------------------------------------------------
1 | 0:00.33 | 2:27.50 | 33 | 11107
2 | 2:28.08 | 2:34.50 | 11108 | 22707
3 | 5:02.58 | 2:22.50 | 22708 | 33407
4 | 7:25.33 | 2:26.25 | 33408 | 44382
5 | 9:51.58 | 2:19.00 | 44383 | 54807
6 | 12:10.58 | 2:21.00 | 54808 | 65382
7 | 14:31.58 | 2:35.00 | 65383 | 77007
8 | 17:06.58 | 2:35.25 | 77008 | 88657
9 | 19:42.08 | 2:29.37 | 88658 | 99869
10 | 22:11.45 | 2:12.13 | 99870 | 109782
11 | 24:23.58 | 2:23.25 | 109783 | 120532
12 | 26:47.08 | 2:35.50 | 120533 | 132207
13 | 29:22.58 | 2:29.25 | 132208 | 143407
14 | 31:52.08 | 2:22.12 | 143408 | 154069
15 | 34:14.20 | 2:08.38 | 154070 | 163707
16 | 36:22.58 | 1:44.62 | 163708 | 171569
17 | 38:07.45 | 2:53.63 | 171570 | 184607

Bereichsstatus und Fehler

Gewählter Bereich

Dateiname K:\Lemon Popsicle Soundtrack\Lemon Popsicle - 2\Soundtrack - Eis am Stiel - Teil 2.wav

Spitzenpegel 99.0 %
Bereichsqualität 100.0 %
Kopie CRC 63CD144D
Kopie OK

Keine Fehler aufgetreten

AccurateRip Übersicht

Track 1 kann nicht als akkurat verifiziert werden (Zuversicht 2) [A9E0A814], AccurateRip lieferte [8CA1FF76]
Track 2 kann nicht als akkurat verifiziert werden (Zuversicht 2) [236DFC39], AccurateRip lieferte [7177B831]
Track 3 kann nicht als akkurat verifiziert werden (Zuversicht 2) [297A7188], AccurateRip lieferte [2A46ECFE]
Track 4 kann nicht als akkurat verifiziert werden (Zuversicht 2) [C86479E1], AccurateRip lieferte [21EF80D7]
Track 5 kann nicht als akkurat verifiziert werden (Zuversicht 2) [AC2073FF], AccurateRip lieferte [08D44715]
Track 6 kann nicht als akkurat verifiziert werden (Zuversicht 2) [C0A954C7], AccurateRip lieferte [08895369]
Track 7 kann nicht als akkurat verifiziert werden (Zuversicht 2) [E29EB955], AccurateRip lieferte [8DE72EDF]
Track 8 kann nicht als akkurat verifiziert werden (Zuversicht 2) [2B9BD5CF], AccurateRip lieferte [98FE16A3]
Track 9 kann nicht als akkurat verifiziert werden (Zuversicht 2) [9603BE77], AccurateRip lieferte [D973E3DD]
Track 10 kann nicht als akkurat verifiziert werden (Zuversicht 2) [86384E9F], AccurateRip lieferte [9875DCCB]
Track 11 kann nicht als akkurat verifiziert werden (Zuversicht 2) [618EB59A], AccurateRip lieferte [CD1BE322]
Track 12 kann nicht als akkurat verifiziert werden (Zuversicht 2) [DE16AC44], AccurateRip lieferte [C3A5DBF0]
Track 13 nicht in Datenbank enthalten
Track 14 kann nicht als akkurat verifiziert werden (Zuversicht 2) [B9FB59D0], AccurateRip lieferte [B636A77C]
Track 15 kann nicht als akkurat verifiziert werden (Zuversicht 2) [E0CE662E], AccurateRip lieferte [24BEFBE0]
Track 16 kann nicht als akkurat verifiziert werden (Zuversicht 2) [511DB076], AccurateRip lieferte [8E9E028C]
Track 17 nicht in Datenbank enthalten

15 Track(s) nicht als akkurat verifiziert
2 Track(s) nicht in der AccurateRip Datenbank vorhanden

Kein Track konnte als akkurat verifiziert werden
Es könnte sich um eine andere Pressung als von der in der Datenbank vorhandenen handeln

Ende des Statusreports
1995 BMG Ariola 74321 35496 2
Продолжительность: 40:49

01. The Fleetwoods / Mr. Blue 02:27
02. Bill Haley / See You Later Alligator 02:47
03. Bobby Helms / My Special Angel 02:58
04. The Coasters / Charlie Brown 02:16
05. Gerry & The Pacemakers / I Like It 02:15
06. Robin Merrill / Mr. Sandman 02:31
07. The Crystals / Da Doo Ron Ron 02:16
08. The Rookies / Rise And Shine 02:31
09. Jerry Lee Lewis / Whole Lotta Shakin' Goin' On 02:54
10. Pat Boone / Speedy Gonzalez 02:34
11. The Popsicles / I Want My Mama 02:03
12. The Tymes / With All My Heart 02:09
13. Sandy Nelson / Let There Be Drums 02:25
14. The Shirelles / Soldier Boy 02:41
15. The Rookies / Strictly Private - Private Popsicle March 02:43
16. The Tremeloes / Silence Is Golden 03:12
Exact Audio Copy V0.99 prebeta 4 from 23. January 2008

EAC Auslese-Logdatei vom 3. August 2009, 0:41

Soundtrack / Eis am Stiel - Teil 4

Benutztes Laufwerk : HL-DT-STDVD-ROM GDR-H30N Adapter: 0 ID: 1

Lesemodus : Sicher
Benutze Accurate Stream : Ja
Audio Puffer abgeschaltet : Ja
Benutze C2 Fehlerinformationen : Nein

Leseoffset Korrektur : 6
Überlesen in das Lead-In und Lead-Out : Nein
Fülle fehlende Offsetsample mit Stille auf : Ja
Lösche führende und nachfolgende stille Blöcke : Nein
Null Samples gehen in CRC Berechnungen ein : Ja
Benutzte Schnittstelle : Installierte externe ASPI Schnittstelle

Benutztes Ausgabeformat : Interne WAV Routinen
Sampleformat : 44.100 Hz; 16 Bit; Stereo

TOC der ausgelesenen CD

Track | Start | Länge | Startsektor | Endsektor
-------------------------------------------------------
1 | 0:00.33 | 2:27.12 | 33 | 11069
2 | 2:27.45 | 2:47.13 | 11070 | 23607
3 | 5:14.58 | 2:58.27 | 23608 | 36984
4 | 8:13.10 | 2:16.73 | 36985 | 47257
5 | 10:30.08 | 2:15.22 | 47258 | 57404
6 | 12:45.30 | 2:31.45 | 57405 | 68774
7 | 15:17.00 | 2:16.58 | 68775 | 79032
8 | 17:33.58 | 2:31.37 | 79033 | 90394
9 | 20:05.20 | 2:54.45 | 90395 | 103489
10 | 22:59.65 | 2:34.10 | 103490 | 115049
11 | 25:34.00 | 2:03.50 | 115050 | 124324
12 | 27:37.50 | 2:09.45 | 124325 | 134044
13 | 29:47.20 | 2:25.13 | 134045 | 144932
14 | 32:12.33 | 2:41.22 | 144933 | 157029
15 | 34:53.55 | 2:43.28 | 157030 | 169282
16 | 37:37.08 | 3:12.25 | 169283 | 183707

Bereichsstatus und Fehler

Gewählter Bereich

Dateiname K:\Lemon Popsicle Soundtrack\Lemon Popsicle - 4\Soundtrack - Eis am Stiel - Teil 4.wav

Spitzenpegel 99.2 %
Bereichsqualität 100.0 %
Kopie CRC 6D6B029D
Kopie OK

Keine Fehler aufgetreten

AccurateRip Übersicht

Track 1 kann nicht als akkurat verifiziert werden (Zuversicht 2) [70E17F92], AccurateRip lieferte [C91C8321]
Track 2 kann nicht als akkurat verifiziert werden (Zuversicht 2) [EA2B1DE4], AccurateRip lieferte [381776F1]
Track 3 kann nicht als akkurat verifiziert werden (Zuversicht 2) [47346AD9], AccurateRip lieferte [E09E05B6]
Track 4 kann nicht als akkurat verifiziert werden (Zuversicht 2) [FC277516], AccurateRip lieferte [02568531]
Track 5 kann nicht als akkurat verifiziert werden (Zuversicht 2) [6D102871], AccurateRip lieferte [AC2B7281]
Track 6 kann nicht als akkurat verifiziert werden (Zuversicht 2) [24291D20], AccurateRip lieferte [2C4D0C0E]
Track 7 kann nicht als akkurat verifiziert werden (Zuversicht 2) [C52C422C], AccurateRip lieferte [442F9E13]
Track 8 kann nicht als akkurat verifiziert werden (Zuversicht 2) [9E889133], AccurateRip lieferte [11CBAC57]
Track 9 kann nicht als akkurat verifiziert werden (Zuversicht 2) [AEF80E44], AccurateRip lieferte [778E450B]
Track 10 kann nicht als akkurat verifiziert werden (Zuversicht 2) [E504884F], AccurateRip lieferte [E05ED92F]
Track 11 kann nicht als akkurat verifiziert werden (Zuversicht 2) [605828A0], AccurateRip lieferte [02728C88]
Track 12 kann nicht als akkurat verifiziert werden (Zuversicht 2) [39DBFE40], AccurateRip lieferte [BD64F8D5]
Track 13 nicht in Datenbank enthalten
Track 14 nicht in Datenbank enthalten
Track 15 kann nicht als akkurat verifiziert werden (Zuversicht 2) [25598B4B], AccurateRip lieferte [C456E195]
Track 16 kann nicht als akkurat verifiziert werden (Zuversicht 2) [8DD91CFC], AccurateRip lieferte [10A7B8C9]

14 Track(s) nicht als akkurat verifiziert
2 Track(s) nicht in der AccurateRip Datenbank vorhanden

Kein Track konnte als akkurat verifiziert werden
Es könnte sich um eine andere Pressung als von der in der Datenbank vorhandenen handeln

Ende des Statusreports
1995 BMG Ariola 74321 35497 2
Продолжительность: 40:13

01. Sandy Nelson / Teen Beat 02:23
02. Curtis Lee / Pretty Little Angel Eyes 02:40
03. The Crests / Sixteen Candles 02:50
04. Little Eva / The Locomotion 02:17
05. Chuck Berry / Sweet Little Sixteen 03:02
06. Little Richard / The Girl Can't Help It 02:26
07. Bill Justis / Raunchy 02:20
08. Platters / Twilight Time 02:32
09. Dion / The Wanderer 02:35
10. Fabian / Tiger 02:27
11. Fontella Bass / Rescue Me 02:51
12. Chuck Berry / Maybelline 02:19
13. Skeeter Davis / The End Of The World 02:37
14. The Chiffons / He's So Fine 01:51
15. Little Richard / Keep A Knocking 02:08
16. The Cherokees / Apache 02:49
Exact Audio Copy V0.99 prebeta 4 from 23. January 2008

EAC Auslese-Logdatei vom 3. August 2009, 0:48

Soundtrack / Eis am Stiel - Teil 5

Benutztes Laufwerk : HL-DT-STDVD-ROM GDR-H30N Adapter: 0 ID: 1

Lesemodus : Sicher
Benutze Accurate Stream : Ja
Audio Puffer abgeschaltet : Ja
Benutze C2 Fehlerinformationen : Nein

Leseoffset Korrektur : 6
Überlesen in das Lead-In und Lead-Out : Nein
Fülle fehlende Offsetsample mit Stille auf : Ja
Lösche führende und nachfolgende stille Blöcke : Nein
Null Samples gehen in CRC Berechnungen ein : Ja
Benutzte Schnittstelle : Installierte externe ASPI Schnittstelle

Benutztes Ausgabeformat : Interne WAV Routinen
Sampleformat : 44.100 Hz; 16 Bit; Stereo

TOC der ausgelesenen CD

Track | Start | Länge | Startsektor | Endsektor
-------------------------------------------------------
1 | 0:00.33 | 2:23.50 | 33 | 10807
2 | 2:24.08 | 2:40.00 | 10808 | 22807
3 | 5:04.08 | 2:50.50 | 22808 | 35607
4 | 7:54.58 | 2:17.25 | 35608 | 45907
5 | 10:12.08 | 3:02.25 | 45908 | 59582
6 | 13:14.33 | 2:26.00 | 59583 | 70532
7 | 15:40.33 | 2:20.25 | 70533 | 81057
8 | 18:00.58 | 2:32.25 | 81058 | 92482
9 | 20:33.08 | 2:35.50 | 92483 | 104157
10 | 23:08.58 | 2:27.00 | 104158 | 115182
11 | 25:35.58 | 2:51.25 | 115183 | 128032
12 | 28:27.08 | 2:19.00 | 128033 | 138457
13 | 30:46.08 | 2:37.00 | 138458 | 150232
14 | 33:23.08 | 1:51.37 | 150233 | 158594
15 | 35:14.45 | 2:08.63 | 158595 | 168257
16 | 37:23.33 | 2:49.12 | 168258 | 180944

Bereichsstatus und Fehler

Gewählter Bereich

Dateiname K:\Lemon Popsicle Soundtrack\Lemon Popsicle - 5\Soundtrack - Eis am Stiel - Teil 5.wav

Spitzenpegel 94.4 %
Bereichsqualität 100.0 %
Kopie CRC B3791F0A
Kopie OK

Keine Fehler aufgetreten

AccurateRip Übersicht

Track 1 kann nicht als akkurat verifiziert werden (Zuversicht 2) [D932919B], AccurateRip lieferte [CB1F62A6]
Track 2 kann nicht als akkurat verifiziert werden (Zuversicht 2) [B35828DF], AccurateRip lieferte [D704B3B3]
Track 3 kann nicht als akkurat verifiziert werden (Zuversicht 2) [617C9694], AccurateRip lieferte [C44CF58D]
Track 4 kann nicht als akkurat verifiziert werden (Zuversicht 2) [C3670E94], AccurateRip lieferte [20062896]
Track 5 kann nicht als akkurat verifiziert werden (Zuversicht 2) [677D0A4E], AccurateRip lieferte [544674E7]
Track 6 kann nicht als akkurat verifiziert werden (Zuversicht 2) [A3F9B6FE], AccurateRip lieferte [0678113F]
Track 7 kann nicht als akkurat verifiziert werden (Zuversicht 2) [6C5421E5], AccurateRip lieferte [0F7D58B2]
Track 8 kann nicht als akkurat verifiziert werden (Zuversicht 2) [C319B2F3], AccurateRip lieferte [28D882EB]
Track 9 kann nicht als akkurat verifiziert werden (Zuversicht 2) [1499A088], AccurateRip lieferte [C9D25453]
Track 10 kann nicht als akkurat verifiziert werden (Zuversicht 2) [FE858E54], AccurateRip lieferte [4391277C]
Track 11 kann nicht als akkurat verifiziert werden (Zuversicht 2) [0306303A], AccurateRip lieferte [2BE6E173]
Track 12 kann nicht als akkurat verifiziert werden (Zuversicht 2) [B9FD6E91], AccurateRip lieferte [838EACB0]
Track 13 kann nicht als akkurat verifiziert werden (Zuversicht 2) [8946BE7F], AccurateRip lieferte [362B0F51]
Track 14 kann nicht als akkurat verifiziert werden (Zuversicht 2) [467157FF], AccurateRip lieferte [7467C6C6]
Track 15 nicht in Datenbank enthalten
Track 16 kann nicht als akkurat verifiziert werden (Zuversicht 2) [B7F60895], AccurateRip lieferte [0901FC1C]

15 Track(s) nicht als akkurat verifiziert
1 Track(s) nicht in der AccurateRip Datenbank vorhanden

Kein Track konnte als akkurat verifiziert werden
Es könnte sich um eine andere Pressung als von der in der Datenbank vorhandenen handeln

Ende des Statusreports
1995 BMG Ariola 74321 35498 2
Продолжительность: 39:02

01. Frankie Ford / Sea cruise 02:42
02. Brook Benton / Baby you got what it takes 02:53
03. Jan & Dean / Surf City 02:28
04. Duane Eddy / Because they're young 02:03
05. Dave "Baby" Cortez / Green onions 03:03
06. The Yardbirds / For your love 02:28
07. Duane Eddy / Forty miles of bad road 02:07
08. Joey Dee and The Starlighters / Pepermint twist 02:03
09. Little Richard / Bam lama bama lou 02:14
10. Brook Benton / It's just a matter of time 02:30
11. Jerry Lee Lewis / Great balls of fire 01:53
12. Chubby Checker / Slow twisting 02:43
13. Dee Dee Sharp / Mashed potato time 02:38
14. Joey Dee and The Starlighters / Shout 02:21
15. The Swinging Blue Jeans / Hippy hippy shake 01:46
16. The Yardbirds / Still I'm sad 03:01
Exact Audio Copy V0.99 prebeta 4 from 23. January 2008

EAC Auslese-Logdatei vom 3. August 2009, 0:55

Soundtrack / Eis am Stiel - Teil 6

Benutztes Laufwerk : HL-DT-STDVD-ROM GDR-H30N Adapter: 0 ID: 1

Lesemodus : Sicher
Benutze Accurate Stream : Ja
Audio Puffer abgeschaltet : Ja
Benutze C2 Fehlerinformationen : Nein

Leseoffset Korrektur : 6
Überlesen in das Lead-In und Lead-Out : Nein
Fülle fehlende Offsetsample mit Stille auf : Ja
Lösche führende und nachfolgende stille Blöcke : Nein
Null Samples gehen in CRC Berechnungen ein : Ja
Benutzte Schnittstelle : Installierte externe ASPI Schnittstelle

Benutztes Ausgabeformat : Interne WAV Routinen
Sampleformat : 44.100 Hz; 16 Bit; Stereo

TOC der ausgelesenen CD

Track | Start | Länge | Startsektor | Endsektor
-------------------------------------------------------
1 | 0:00.33 | 2:42.50 | 33 | 12232
2 | 2:43.08 | 2:53.25 | 12233 | 25232
3 | 5:36.33 | 2:28.45 | 25233 | 36377
4 | 8:05.03 | 2:03.65 | 36378 | 45667
5 | 10:08.68 | 3:03.67 | 45668 | 59459
6 | 13:12.60 | 2:28.50 | 59460 | 70609
7 | 15:41.35 | 2:07.10 | 70610 | 80144
8 | 17:48.45 | 2:03.50 | 80145 | 89419
9 | 19:52.20 | 2:14.68 | 89420 | 99537
10 | 22:07.13 | 2:30.62 | 99538 | 110849
11 | 24:38.00 | 1:53.30 | 110850 | 119354
12 | 26:31.30 | 2:43.48 | 119355 | 131627
13 | 29:15.03 | 2:38.05 | 131628 | 143482
14 | 31:53.08 | 2:21.00 | 143483 | 154057
15 | 34:14.08 | 1:46.50 | 154058 | 162057
16 | 36:00.58 | 3:01.12 | 162058 | 175644

Bereichsstatus und Fehler

Gewählter Bereich

Dateiname K:\Lemon Popsicle Soundtrack\Lemon Popsicle - 6\Soundtrack - Eis am Stiel - Teil 6.wav

Spitzenpegel 99.4 %
Bereichsqualität 100.0 %
Kopie CRC D7110B87
Kopie OK

Keine Fehler aufgetreten

AccurateRip Übersicht

Track 1 nicht in Datenbank enthalten
Track 2 nicht in Datenbank enthalten
Track 3 nicht in Datenbank enthalten
Track 4 nicht in Datenbank enthalten
Track 5 nicht in Datenbank enthalten
Track 6 nicht in Datenbank enthalten
Track 7 nicht in Datenbank enthalten
Track 8 nicht in Datenbank enthalten
Track 9 nicht in Datenbank enthalten
Track 10 nicht in Datenbank enthalten
Track 11 nicht in Datenbank enthalten
Track 12 nicht in Datenbank enthalten
Track 13 nicht in Datenbank enthalten
Track 14 nicht in Datenbank enthalten
Track 15 nicht in Datenbank enthalten
Track 16 nicht in Datenbank enthalten

Keiner der Tracks ist in der AccurateRip Datenbank vorhanden

Ende des Statusreports
1995 BMG Ariola 74321 35499 2
Продолжительность: 48:59

01. Chubby Checker / Hucklebuck 02:29
02. Al Bunny / Eros 04:11
03. Sam The Sham and the Pharaohs / Wooly Bully 02:21
04. Brook Benton / A Rockin' Good Way 02:27
05. Fingers / Shakin' in my Shoes 02:31
06. Carl Perkins / Gone, Gone, Gone 02:40
07. Lioyd Price / Personality 02:29
08. Bill Doggett / Honky Tonk 05:22
09. Jonny Hill / Young Love 02:27
10. Little Richard / Slippin' an' Slidin 02:34
11. Rufus Thomas / Do the Funky Chicken 03:11
12. Dan Dare / Skyride 03:38
13. Roy Orbison / Ooby Dooby 02:13
14. Bobby Freeman / Do You Wanna Dance? 02:37
15. The Surfaris / Wipe Out 02:15
16. Brook Benton / Kiddio 02:41
17. The Tremeloes / Here Comes my Baby 02:49
Exact Audio Copy V0.99 prebeta 4 from 23. January 2008

EAC Auslese-Logdatei vom 3. August 2009, 1:05

Soundtrack / Eis am Stiel - Teil 7

Benutztes Laufwerk : HL-DT-STDVD-ROM GDR-H30N Adapter: 0 ID: 1

Lesemodus : Sicher
Benutze Accurate Stream : Ja
Audio Puffer abgeschaltet : Ja
Benutze C2 Fehlerinformationen : Nein

Leseoffset Korrektur : 6
Überlesen in das Lead-In und Lead-Out : Nein
Fülle fehlende Offsetsample mit Stille auf : Ja
Lösche führende und nachfolgende stille Blöcke : Nein
Null Samples gehen in CRC Berechnungen ein : Ja
Benutzte Schnittstelle : Installierte externe ASPI Schnittstelle

Benutztes Ausgabeformat : Interne WAV Routinen
Sampleformat : 44.100 Hz; 16 Bit; Stereo

TOC der ausgelesenen CD

Track | Start | Länge | Startsektor | Endsektor
-------------------------------------------------------
1 | 0:00.33 | 2:29.00 | 33 | 11207
2 | 2:29.33 | 4:11.50 | 11208 | 30082
3 | 6:41.08 | 2:21.00 | 30083 | 40657
4 | 9:02.08 | 2:27.00 | 40658 | 51682
5 | 11:29.08 | 2:31.00 | 51683 | 63007
6 | 14:00.08 | 2:40.00 | 63008 | 75007
7 | 16:40.08 | 2:29.00 | 75008 | 86182
8 | 19:09.08 | 5:22.00 | 86183 | 110332
9 | 24:31.08 | 2:27.37 | 110333 | 121394
10 | 26:58.45 | 2:34.38 | 121395 | 132982
11 | 29:33.08 | 3:11.00 | 132983 | 147307
12 | 32:44.08 | 3:38.00 | 147308 | 163657
13 | 36:22.08 | 2:13.00 | 163658 | 173632
14 | 38:35.08 | 2:37.37 | 173633 | 185444
15 | 41:12.45 | 2:15.63 | 185445 | 195632
16 | 43:28.33 | 2:41.37 | 195633 | 207744
17 | 46:09.70 | 2:49.38 | 207745 | 220457

Bereichsstatus und Fehler

Gewählter Bereich

Dateiname K:\Lemon Popsicle Soundtrack\Lemon Popsicle - 7\Soundtrack - Eis am Stiel - Teil 7.wav

Spitzenpegel 94.1 %
Bereichsqualität 99.9 %
Kopie CRC 4572B8BA
Kopie OK

Keine Fehler aufgetreten

AccurateRip Übersicht

Track 1 akkurat gelesen (Zuversicht 2) [5B0A6EC2]
Track 2 akkurat gelesen (Zuversicht 2) [F952F92F]
Track 3 akkurat gelesen (Zuversicht 2) [06C19DFB]
Track 4 akkurat gelesen (Zuversicht 2) [241C5EC9]
Track 5 akkurat gelesen (Zuversicht 2) [6B2059EC]
Track 6 akkurat gelesen (Zuversicht 2) [1B68FDCF]
Track 7 akkurat gelesen (Zuversicht 2) [3A3F0F5D]
Track 8 akkurat gelesen (Zuversicht 2) [7007E924]
Track 9 akkurat gelesen (Zuversicht 2) [ACA9E505]
Track 10 akkurat gelesen (Zuversicht 2) [0831E8BE]
Track 11 akkurat gelesen (Zuversicht 2) [640400D7]
Track 12 akkurat gelesen (Zuversicht 2) [017B7B52]
Track 13 akkurat gelesen (Zuversicht 2) [2C4C13C3]
Track 14 akkurat gelesen (Zuversicht 2) [06B34E8A]
Track 15 akkurat gelesen (Zuversicht 2) [45DA412F]
Track 16 akkurat gelesen (Zuversicht 2) [BC5D870C]
Track 17 akkurat gelesen (Zuversicht 2) [DE03B0C0]

Alle Tracks wurden akkurat gelesen

Ende des Statusreports
1999 NMC Music Israel 20374-2
Продолжительность: 52:14 + 50:58 + 53:04

CD1

01. Bobby Vinton / Mr. lonely 02:39
02. Frankie Laine / My Little One 02:49
03. Paul & Paula / Hey, Paula 02:30
04. Johnny Tillotson / Poetry in Motion 02:29
05. Paul Anka / Diana 02:26
06. David Seville / Witch Doctor 02:20
07. Bill Haley / Rock Around the Clock 02:12
08. Little Richard / Tutti Frutti 02:21
09. Skeeter Davis / The End of the World 02:38
10. Platters / Smoke Gets in Your Eyes 02:39
11. Pat Boone / Speedy Gonzales 02:30
12. Chris Montez / Let's Dance 02:28
13. Cliff Richard / Do You Want to Dance? 02:14
14. Jan & Dean / Heart and Soul 02:08
15. Paul Anka / You are my Destiny 02:46
16. Brothers Four / Green Fields 03:03
17. Bobby Vee / Take Good Care of my Baby 02:27
18. The Shirelles / Will You Love Me Tomorrow 02:42
19. Carl Perkins / Blue Suede Shoes 02:14
20. Jerry Lee Lewis / Great Balls of Fire 01:51
21. Curtis Lee/ Pretty Little Angel Eyes 02:40
Exact Audio Copy V0.99 prebeta 4 from 23. January 2008

EAC Auslese-Logdatei vom 3. August 2009, 8:57

Various Artists / Best Of Limon Popsicle, CD 1

Benutztes Laufwerk : HL-DT-STDVD-ROM GDR-H30N Adapter: 0 ID: 1

Lesemodus : Sicher
Benutze Accurate Stream : Ja
Audio Puffer abgeschaltet : Ja
Benutze C2 Fehlerinformationen : Nein

Leseoffset Korrektur : 6
Überlesen in das Lead-In und Lead-Out : Nein
Fülle fehlende Offsetsample mit Stille auf : Ja
Lösche führende und nachfolgende stille Blöcke : Nein
Null Samples gehen in CRC Berechnungen ein : Ja
Benutzte Schnittstelle : Installierte externe ASPI Schnittstelle

Benutztes Ausgabeformat : Interne WAV Routinen
Sampleformat : 44.100 Hz; 16 Bit; Stereo

TOC der ausgelesenen CD

Track | Start | Länge | Startsektor | Endsektor
-------------------------------------------------------
1 | 0:00.00 | 2:39.54 | 0 | 11978
2 | 2:39.54 | 2:49.17 | 11979 | 24670
3 | 5:28.71 | 2:30.11 | 24671 | 35931
4 | 7:59.07 | 2:29.45 | 35932 | 47151
5 | 10:28.52 | 2:26.06 | 47152 | 58107
6 | 12:54.58 | 2:20.18 | 58108 | 68625
7 | 15:15.01 | 2:12.16 | 68626 | 78541
8 | 17:27.17 | 2:21.46 | 78542 | 89162
9 | 19:48.63 | 2:38.25 | 89163 | 101037
10 | 22:27.13 | 2:39.47 | 101038 | 113009
11 | 25:06.60 | 2:30.28 | 113010 | 124287
12 | 27:37.13 | 2:28.02 | 124288 | 135389
13 | 30:05.15 | 2:14.20 | 135390 | 145459
14 | 32:19.35 | 2:08.57 | 145460 | 155116
15 | 34:28.17 | 2:46.60 | 155117 | 167626
16 | 37:15.02 | 3:03.19 | 167627 | 181370
17 | 40:18.21 | 2:27.36 | 181371 | 192431
18 | 42:45.57 | 2:42.10 | 192432 | 204591
19 | 45:27.67 | 2:14.42 | 204592 | 214683
20 | 47:42.34 | 1:51.41 | 214684 | 223049
21 | 49:34.00 | 2:40.06 | 223050 | 235055

Bereichsstatus und Fehler

Gewählter Bereich

Dateiname K:\Lemon Popsicle Soundtrack\Eskimo Limon Greatest Hits - 1\Various Artists - Best Of Limon Popsicle, CD 1.wav

Spitzenpegel 100.0 %
Bereichsqualität 100.0 %
Kopie CRC 70CAF8DE
Kopie OK

Keine Fehler aufgetreten

AccurateRip Übersicht

Track 1 nicht in Datenbank enthalten
Track 2 nicht in Datenbank enthalten
Track 3 nicht in Datenbank enthalten
Track 4 nicht in Datenbank enthalten
Track 5 nicht in Datenbank enthalten
Track 6 nicht in Datenbank enthalten
Track 7 nicht in Datenbank enthalten
Track 8 nicht in Datenbank enthalten
Track 9 nicht in Datenbank enthalten
Track 10 nicht in Datenbank enthalten
Track 11 nicht in Datenbank enthalten
Track 12 nicht in Datenbank enthalten
Track 13 nicht in Datenbank enthalten
Track 14 nicht in Datenbank enthalten
Track 15 nicht in Datenbank enthalten
Track 16 nicht in Datenbank enthalten
Track 17 nicht in Datenbank enthalten
Track 18 nicht in Datenbank enthalten
Track 19 nicht in Datenbank enthalten
Track 20 nicht in Datenbank enthalten
Track 21 nicht in Datenbank enthalten

Keiner der Tracks ist in der AccurateRip Datenbank vorhanden

Ende des Statusreports
CD 2

01. Paul Anka / Crazy Love 02:28
02. The Shirelles / Dedicated To The One I Love 02:04
03. Doris Day / Whatever Will Be, Will Be (Que Sera, Sera) 02:04
04. Domenico Modugno / Come Prima 02:15
05. Ritchie Valens / La Bamba 02:07
06. The Champs / Tequila 02:12
07. Little Richard / Long Tall Sally 02:09
08. The Crests / Sixteen Candles 02:50
09. Domenigo Modugno / (Volare) Nel Blu Dipinto Di Blu 03:35
10. Frankie Avalon / Venus 02:21
11. Cliff Richard / Livin' Doll 02:37
12. Gene Vincent / Be-Bop-A-Lula 02:35
13. Chubby Checker / Let's Twist Again 02:23
14. Roy Orbison / Ooby Dooby 02:12
15. Little Richard / Lucille 02:26
16. Platters / Only You 02:35
17. Ritchie Valens / Donna 02:29
18. The Shirelles / Soldier Boy 02:41
19. The Dixie Cups / Chapel Of Love 02:47
20. The Chiffons / He's So Fine 01:50
21. The Chordettes / Lollipop 02:07
Exact Audio Copy V0.99 prebeta 4 from 23. January 2008

EAC Auslese-Logdatei vom 3. August 2009, 9:10

Various / Best Of Limon Popsicle, CD 2

Benutztes Laufwerk : HL-DT-STDVD-ROM GDR-H30N Adapter: 0 ID: 1

Lesemodus : Sicher
Benutze Accurate Stream : Ja
Audio Puffer abgeschaltet : Ja
Benutze C2 Fehlerinformationen : Nein

Leseoffset Korrektur : 6
Überlesen in das Lead-In und Lead-Out : Nein
Fülle fehlende Offsetsample mit Stille auf : Ja
Lösche führende und nachfolgende stille Blöcke : Nein
Null Samples gehen in CRC Berechnungen ein : Ja
Benutzte Schnittstelle : Installierte externe ASPI Schnittstelle

Benutztes Ausgabeformat : Interne WAV Routinen
Sampleformat : 44.100 Hz; 16 Bit; Stereo

TOC der ausgelesenen CD

Track | Start | Länge | Startsektor | Endsektor
-------------------------------------------------------
1 | 0:00.00 | 2:28.35 | 0 | 11134
2 | 2:28.35 | 2:04.36 | 11135 | 20470
3 | 4:32.71 | 2:04.51 | 20471 | 29821
4 | 6:37.47 | 2:15.53 | 29822 | 39999
5 | 8:53.25 | 2:07.31 | 40000 | 49555
6 | 11:00.56 | 2:12.33 | 49556 | 59488
7 | 13:13.14 | 2:09.17 | 59489 | 69180
8 | 15:22.31 | 2:50.29 | 69181 | 81959
9 | 18:12.60 | 3:35.59 | 81960 | 98143
10 | 21:48.44 | 2:21.71 | 98144 | 108789
11 | 24:10.40 | 2:37.06 | 108790 | 120570
12 | 26:47.46 | 2:35.50 | 120571 | 132245
13 | 29:23.21 | 2:23.12 | 132246 | 142982
14 | 31:46.33 | 2:12.30 | 142983 | 152912
15 | 33:58.63 | 2:26.54 | 152913 | 163916
16 | 36:25.42 | 2:35.55 | 163917 | 175596
17 | 39:01.22 | 2:29.09 | 175597 | 186780
18 | 41:30.31 | 2:41.42 | 186781 | 198897
19 | 44:11.73 | 2:47.22 | 198898 | 211444
20 | 46:59.20 | 1:50.46 | 211445 | 219740
21 | 48:49.66 | 2:07.59 | 219741 | 229324

Bereichsstatus und Fehler

Gewählter Bereich

Dateiname K:\Lemon Popsicle Soundtrack\Eskimo Limon Greatest Hits - 2\Various - Best Of Limon Popsicle, CD 2.wav

Spitzenpegel 100.0 %
Bereichsqualität 99.9 %
Kopie CRC 04EA2BAF
Kopie OK

Keine Fehler aufgetreten

AccurateRip Übersicht

Track 1 nicht in Datenbank enthalten
Track 2 nicht in Datenbank enthalten
Track 3 nicht in Datenbank enthalten
Track 4 nicht in Datenbank enthalten
Track 5 nicht in Datenbank enthalten
Track 6 nicht in Datenbank enthalten
Track 7 nicht in Datenbank enthalten
Track 8 nicht in Datenbank enthalten
Track 9 nicht in Datenbank enthalten
Track 10 nicht in Datenbank enthalten
Track 11 nicht in Datenbank enthalten
Track 12 nicht in Datenbank enthalten
Track 13 nicht in Datenbank enthalten
Track 14 nicht in Datenbank enthalten
Track 15 nicht in Datenbank enthalten
Track 16 nicht in Datenbank enthalten
Track 17 nicht in Datenbank enthalten
Track 18 nicht in Datenbank enthalten
Track 19 nicht in Datenbank enthalten
Track 20 nicht in Datenbank enthalten
Track 21 nicht in Datenbank enthalten

Keiner der Tracks ist in der AccurateRip Datenbank vorhanden

Ende des Statusreports
CD3

01. Brian Hyland / Sealed With A Kiss 02:39
02. Paul Anka / Put Your Head On My Shoulder 02:38
03. Brothers Four / The Green Leaves Of Summer 02:54
04. Domenico Modugno / Piove (Ciao Ciao Bambina) 03:03
05. Cliff Richard / Lucky Lips 02:42
06. Shadows / FBI 02:19
07. Cliff Richard / Angel 02:18
08. The Swinging Blue Jeans / The Hippy Hippy Shake 01:44
09. Platters / Twilight Time 02:45
10. Bobby Vee / Devil Or Angel 02:18
11. Shawn Elliott / Shame And Scandal In The Family 02:40
12. Shadows / Apache 02:53
13. Cliff Richard / Sway 02:04
14. Del Shannon / Runaway 02:18
15. Jerry Lee Lewis / Sweet Little Sixteen 02:54
16. Frankie Avalon / Gingerbread 02:03
17. Paul Anka / Puppy Love 02:41
18. Frankie Avalon / Why 02:36
19. The Everly Brothers / Bye Bye Love 02:18
20. Mama Eu Quero (I Want My Mama) - Carmen Miranda 02:43
21. Percy Faith / Theme From "A Summer Place" 02:24
Exact Audio Copy V0.99 prebeta 4 from 23. January 2008

EAC Auslese-Logdatei vom 3. August 2009, 9:19

Various Artists / Best Of Lemon Popsicle

Benutztes Laufwerk : HL-DT-STDVD-ROM GDR-H30N Adapter: 0 ID: 1

Lesemodus : Sicher
Benutze Accurate Stream : Ja
Audio Puffer abgeschaltet : Ja
Benutze C2 Fehlerinformationen : Nein

Leseoffset Korrektur : 6
Überlesen in das Lead-In und Lead-Out : Nein
Fülle fehlende Offsetsample mit Stille auf : Ja
Lösche führende und nachfolgende stille Blöcke : Nein
Null Samples gehen in CRC Berechnungen ein : Ja
Benutzte Schnittstelle : Installierte externe ASPI Schnittstelle

Benutztes Ausgabeformat : Interne WAV Routinen
Sampleformat : 44.100 Hz; 16 Bit; Stereo

TOC der ausgelesenen CD

Track | Start | Länge | Startsektor | Endsektor
-------------------------------------------------------
1 | 0:00.00 | 2:39.25 | 0 | 11949
2 | 2:39.25 | 2:38.37 | 11950 | 23836
3 | 5:17.62 | 2:54.44 | 23837 | 36930
4 | 8:12.31 | 3:03.60 | 36931 | 50715
5 | 11:16.16 | 2:42.20 | 50716 | 62885
6 | 13:58.36 | 2:19.50 | 62886 | 73360
7 | 16:18.11 | 2:18.65 | 73361 | 83775
8 | 18:37.01 | 1:44.54 | 83776 | 91629
9 | 20:21.55 | 2:45.15 | 91630 | 104019
10 | 23:06.70 | 2:18.26 | 104020 | 114395
11 | 25:25.21 | 2:40.21 | 114396 | 126416
12 | 28:05.42 | 2:53.07 | 126417 | 139398
13 | 30:58.49 | 2:04.03 | 139399 | 148701
14 | 33:02.52 | 2:18.35 | 148702 | 159086
15 | 35:21.12 | 2:54.55 | 159087 | 172191
16 | 38:15.67 | 2:03.72 | 172192 | 181488
17 | 40:19.64 | 2:41.28 | 181489 | 193591
18 | 43:01.17 | 2:36.70 | 193592 | 205361
19 | 45:38.12 | 2:18.47 | 205362 | 215758
20 | 47:56.59 | 2:43.08 | 215759 | 227991
21 | 50:39.67 | 2:24.02 | 227992 | 238793

Bereichsstatus und Fehler

Gewählter Bereich

Dateiname K:\Lemon Popsicle Soundtrack\Eskimo Limon Greatest Hits - 3\Various Artists - Best Of Lemon Popsicle.wav

Spitzenpegel 100.0 %
Bereichsqualität 100.0 %
Kopie CRC 1B4DED0F
Kopie OK

Keine Fehler aufgetreten

AccurateRip Übersicht

Track 1 nicht in Datenbank enthalten
Track 2 nicht in Datenbank enthalten
Track 3 nicht in Datenbank enthalten
Track 4 nicht in Datenbank enthalten
Track 5 nicht in Datenbank enthalten
Track 6 nicht in Datenbank enthalten
Track 7 nicht in Datenbank enthalten
Track 8 nicht in Datenbank enthalten
Track 9 nicht in Datenbank enthalten
Track 10 nicht in Datenbank enthalten
Track 11 nicht in Datenbank enthalten
Track 12 nicht in Datenbank enthalten
Track 13 nicht in Datenbank enthalten
Track 14 nicht in Datenbank enthalten
Track 15 nicht in Datenbank enthalten
Track 16 nicht in Datenbank enthalten
Track 17 nicht in Datenbank enthalten
Track 18 nicht in Datenbank enthalten
Track 19 nicht in Datenbank enthalten
Track 20 nicht in Datenbank enthalten
Track 21 nicht in Datenbank enthalten

Keiner der Tracks ist in der AccurateRip Datenbank vorhanden

Ende des Statusreports
2001 NMC Music Israel 20399-2
Продолжительность: 53:06 + 55:04 + 56:20

CD 4

01. Bobby Vinton / Blue Velvet 02:48
02. Lesley Gore / You Don't Own Me 02:29
03. Roy Orbison / Oly The Lonely (Know The Way I Feel) 02:26
04. Brian Hylan / Itsy Bitsy Teenie Weenie Yellow Polka-Dot Bikini 02:22
05. Connie Francis / Stupid Cupid 02:11
06. Johnny Tillotson / Princess Princess 02:14
07. Johnny Burnette / Dreamin' 02:19
08. The Poni-Tails / Born Too Late 02:17
09. Everly Brothers / All I Have To Do Is Dream 02:18
10. Dion & The Belmonts / A Teenager In Love 02:33
11. Betty Everett / The Shoop Shoop Song (It's In His Kiss) 02:15
12. Millie / My Boy Lollipop 02:01
13. Lesley Gore / It's My Party 02:22
14. Bobby Helms / My Special Angel 02:58
15. Helen Shapiro / Walkin' Back To Hapiness 02:28
16. Alma Cogan / Tell Him 02:09
17. The Marcels / Blue Moon 02:15
18. Danny & The Juniors / At The Hop 02:31
19. Neil Sedaka / Waiting For Never (La Terza Luna) 02:45
20. Barry Mann / Who Put The Bomp (In The Bomp, Bomp) 02:44
21. Phil Tate And His Orchestra / Hit The Road Jack (Let's Twist) 02:22
22. Phil Tate And His Orchestra / Twist Around The Clock 02:08
Exact Audio Copy V0.99 prebeta 4 from 23. January 2008

EAC Auslese-Logdatei vom 3. August 2009, 12:04

Various / Best Of Lemon Popsicle, CD 4

Benutztes Laufwerk : HL-DT-STDVD-ROM GDR-H30N Adapter: 0 ID: 1

Lesemodus : Sicher
Benutze Accurate Stream : Ja
Audio Puffer abgeschaltet : Ja
Benutze C2 Fehlerinformationen : Nein

Leseoffset Korrektur : 6
Überlesen in das Lead-In und Lead-Out : Nein
Fülle fehlende Offsetsample mit Stille auf : Ja
Lösche führende und nachfolgende stille Blöcke : Nein
Null Samples gehen in CRC Berechnungen ein : Ja
Benutzte Schnittstelle : Installierte externe ASPI Schnittstelle

Benutztes Ausgabeformat : Interne WAV Routinen
Sampleformat : 44.100 Hz; 16 Bit; Stereo

TOC der ausgelesenen CD

Track | Start | Länge | Startsektor | Endsektor
-------------------------------------------------------
1 | 0:00.00 | 2:48.64 | 0 | 12663
2 | 2:48.64 | 2:29.42 | 12664 | 23880
3 | 5:18.31 | 2:26.39 | 23881 | 34869
4 | 7:44.70 | 2:22.25 | 34870 | 45544
5 | 10:07.20 | 2:11.45 | 45545 | 55414
6 | 12:18.65 | 2:14.51 | 55415 | 65515
7 | 14:33.41 | 2:19.15 | 65516 | 75955
8 | 16:52.56 | 2:17.60 | 75956 | 86290
9 | 19:10.41 | 2:18.65 | 86291 | 96705
10 | 21:29.31 | 2:33.00 | 96706 | 108180
11 | 24:02.31 | 2:15.39 | 108181 | 118344
12 | 26:17.70 | 2:01.00 | 118345 | 127419
13 | 28:18.70 | 2:22.00 | 127420 | 138069
14 | 30:40.70 | 2:58.15 | 138070 | 151434
15 | 33:39.10 | 2:28.60 | 151435 | 162594
16 | 36:07.70 | 2:09.25 | 162595 | 172294
17 | 38:17.20 | 2:15.60 | 172295 | 182479
18 | 40:33.05 | 2:31.30 | 182480 | 193834
19 | 43:04.35 | 2:45.29 | 193835 | 206238
20 | 45:49.64 | 2:44.61 | 206239 | 218599
21 | 48:34.50 | 2:22.30 | 218600 | 229279
22 | 50:57.05 | 2:08.38 | 229280 | 238917

Bereichsstatus und Fehler

Gewählter Bereich

Dateiname K:\Lemon Popsicle Soundtrack\Eskimo Limon Greatest Hits - 4\Various - Best Of Lemon Popsicle, CD 4.wav

Spitzenpegel 100.0 %
Bereichsqualität 100.0 %
Kopie CRC 34B81E41
Kopie OK

Keine Fehler aufgetreten

AccurateRip Übersicht

Track 1 nicht in Datenbank enthalten
Track 2 nicht in Datenbank enthalten
Track 3 nicht in Datenbank enthalten
Track 4 nicht in Datenbank enthalten
Track 5 nicht in Datenbank enthalten
Track 6 nicht in Datenbank enthalten
Track 7 nicht in Datenbank enthalten
Track 8 nicht in Datenbank enthalten
Track 9 nicht in Datenbank enthalten
Track 10 nicht in Datenbank enthalten
Track 11 nicht in Datenbank enthalten
Track 12 nicht in Datenbank enthalten
Track 13 nicht in Datenbank enthalten
Track 14 nicht in Datenbank enthalten
Track 15 nicht in Datenbank enthalten
Track 16 nicht in Datenbank enthalten
Track 17 nicht in Datenbank enthalten
Track 18 nicht in Datenbank enthalten
Track 19 nicht in Datenbank enthalten
Track 20 nicht in Datenbank enthalten
Track 21 nicht in Datenbank enthalten
Track 22 nicht in Datenbank enthalten

Keiner der Tracks ist in der AccurateRip Datenbank vorhanden

Ende des Statusreports
CD 5

01. Helen Shapiro / You Don't Know 02:39
02. Linda Scott / I've Told Every Little Star 02:18
03. Shirley Bassey / Kiss Me Honey Honey, Kiss Me 02:25
04. Paul Evans / Seven Little Girls Sitting In The Back Seat 02:16
05. Steve Lawrence / Footsteps 02:11
06. Johnny Burnette / You're Sixteen 01:57
07. Craig Douglas / A Hundred Pounds Of Clay 02:32
08. The Diamonds / Little Darlin' 02:07
09. The Shadows / Kon-Tiki 01:53
10. Ray Peterson / Tell Laura I Love Her 02:55
11. Teddy Bears / To Know Him Is To Love Him 02:23
12. Swinging Blue Jeans / You're No Good 02:16
13. Craig Douglas / Only Sixteen 02:15
14. Beach Boys / Barbara Ann 02:05
15. Beach Boys / Surfin' USA... 02:26
16. Gerry & The Pacemakers / I Like It 02:14
17. Bobby Vinton / Roses Are Red (My Love) 02:37
18. Debbie Reynolds / Tammy 03:06
19. The Shadows / Guitar Tango 02:59
20. Alma Cogan / Never Do A Tango With An Eskimo 02:11
21. Paul Evans / Happy Go Lucky Me 01:56
22. The Surfaris / Wipe Out 02:38
23. Andy Williams / Music To Watch Girls By 02:35
Exact Audio Copy V0.99 prebeta 4 from 23. January 2008

EAC Auslese-Logdatei vom 3. August 2009, 12:14

Various / Best Of Lemon Popsicle, CD 5

Benutztes Laufwerk : HL-DT-STDVD-ROM GDR-H30N Adapter: 0 ID: 1

Lesemodus : Sicher
Benutze Accurate Stream : Ja
Audio Puffer abgeschaltet : Ja
Benutze C2 Fehlerinformationen : Nein

Leseoffset Korrektur : 6
Überlesen in das Lead-In und Lead-Out : Nein
Fülle fehlende Offsetsample mit Stille auf : Ja
Lösche führende und nachfolgende stille Blöcke : Nein
Null Samples gehen in CRC Berechnungen ein : Ja
Benutzte Schnittstelle : Installierte externe ASPI Schnittstelle

Benutztes Ausgabeformat : Interne WAV Routinen
Sampleformat : 44.100 Hz; 16 Bit; Stereo

TOC der ausgelesenen CD

Track | Start | Länge | Startsektor | Endsektor
-------------------------------------------------------
1 | 0:00.00 | 2:39.20 | 0 | 11944
2 | 2:39.20 | 2:18.00 | 11945 | 22294
3 | 4:57.20 | 2:25.40 | 22295 | 33209
4 | 7:22.60 | 2:16.15 | 33210 | 43424
5 | 9:39.00 | 2:11.40 | 43425 | 53289
6 | 11:50.40 | 1:57.30 | 53290 | 62094
7 | 13:47.70 | 2:32.72 | 62095 | 73566
8 | 16:20.67 | 2:07.08 | 73567 | 83099
9 | 18:28.00 | 1:53.55 | 83100 | 91629
10 | 20:21.55 | 2:55.50 | 91630 | 104804
11 | 23:17.30 | 2:23.70 | 104805 | 115599
12 | 25:41.25 | 2:16.15 | 115600 | 125814
13 | 27:57.40 | 2:15.10 | 125815 | 135949
14 | 30:12.50 | 2:05.45 | 135950 | 145369
15 | 32:18.20 | 2:26.00 | 145370 | 156319
16 | 34:44.20 | 2:14.20 | 156320 | 166389
17 | 36:58.40 | 2:37.55 | 166390 | 178219
18 | 39:36.20 | 3:06.25 | 178220 | 192194
19 | 42:42.45 | 2:59.30 | 192195 | 205649
20 | 45:42.00 | 2:11.00 | 205650 | 215474
21 | 47:53.00 | 1:56.70 | 215475 | 224244
22 | 49:49.70 | 2:38.45 | 224245 | 236139
23 | 52:28.40 | 2:35.05 | 236140 | 247769

Bereichsstatus und Fehler

Gewählter Bereich

Dateiname K:\Lemon Popsicle Soundtrack\Eskimo Limon Greatest Hits - 5\Various - Best Of Lemon Popsicle, CD 5.wav

Spitzenpegel 100.0 %
Bereichsqualität 100.0 %
Kopie CRC 3F1E6991
Kopie OK

Keine Fehler aufgetreten

AccurateRip Übersicht

Track 1 nicht in Datenbank enthalten
Track 2 nicht in Datenbank enthalten
Track 3 nicht in Datenbank enthalten
Track 4 nicht in Datenbank enthalten
Track 5 nicht in Datenbank enthalten
Track 6 nicht in Datenbank enthalten
Track 7 nicht in Datenbank enthalten
Track 8 nicht in Datenbank enthalten
Track 9 nicht in Datenbank enthalten
Track 10 nicht in Datenbank enthalten
Track 11 nicht in Datenbank enthalten
Track 12 nicht in Datenbank enthalten
Track 13 nicht in Datenbank enthalten
Track 14 nicht in Datenbank enthalten
Track 15 nicht in Datenbank enthalten
Track 16 nicht in Datenbank enthalten
Track 17 nicht in Datenbank enthalten
Track 18 nicht in Datenbank enthalten
Track 19 nicht in Datenbank enthalten
Track 20 nicht in Datenbank enthalten
Track 21 nicht in Datenbank enthalten
Track 22 nicht in Datenbank enthalten
Track 23 nicht in Datenbank enthalten

Keiner der Tracks ist in der AccurateRip Datenbank vorhanden

Ende des Statusreports
CD 6

01. Brenda Lee / All Alone Am I 02:43
02. Dion & The Belmonts / The Kissin' Game 02:57
03. Neil Sedaka / Calendar Girl 02:37
04. Bill Harley & His Lost Comets / See You Later Alligator 02:44
05. Perez Prado / Mambo No. 5 02:08
06. Gene Pitney / Town Without Pity 02:52
07. Jay & The Americans / Cara Mia 02:33
08. Roy Orbison / Oh, Pretty Woman 02:57
09. Little Eva / The Loco-Motion 02:26
10. The Shadows / Wonderful Land 02:01
11. Sonny James / Young Love 02:29
12. Frank Ifield / Summer Is Over 03:10
13. Frankie Laine / A Woman In Love 02:22
14. John Leyton / Johnny Remember Me 02:37
15. John Leyton / Lonely City 02:09
16. Guy Mitchell / My Truly, Truly Fair 02:49
17. Nat King Cole & Stubby Kaye / The Ballads Of Cat Ballon 02:43
18. Eddie Calvert / Julia 02:27
19. The Brothers Four / 55 Days At Peking 02:02
20. Nina & Frederik / Sucu Sucu 02:07
21. Marino Marini / Guaglione 03:15
22. Martin Denny / The Enchanted Sea 01:59
Exact Audio Copy V0.99 prebeta 4 from 23. January 2008

EAC Auslese-Logdatei vom 3. August 2009, 12:26

Various / Best Of Lemon Popsicle, CD 6

Benutztes Laufwerk : HL-DT-STDVD-ROM GDR-H30N Adapter: 0 ID: 1

Lesemodus : Sicher
Benutze Accurate Stream : Ja
Audio Puffer abgeschaltet : Ja
Benutze C2 Fehlerinformationen : Nein

Leseoffset Korrektur : 6
Überlesen in das Lead-In und Lead-Out : Nein
Fülle fehlende Offsetsample mit Stille auf : Ja
Lösche führende und nachfolgende stille Blöcke : Nein
Null Samples gehen in CRC Berechnungen ein : Ja
Benutzte Schnittstelle : Installierte externe ASPI Schnittstelle

Benutztes Ausgabeformat : Interne WAV Routinen
Sampleformat : 44.100 Hz; 16 Bit; Stereo

TOC der ausgelesenen CD

Track | Start | Länge | Startsektor | Endsektor
-------------------------------------------------------
1 | 0:00.15 | 2:43.69 | 15 | 12308
2 | 2:44.09 | 2:57.18 | 12309 | 25601
3 | 5:41.27 | 2:37.53 | 25602 | 37429
4 | 8:19.05 | 2:44.70 | 37430 | 49799
5 | 11:04.00 | 2:08.30 | 49800 | 59429
6 | 13:12.30 | 2:52.40 | 59430 | 72369
7 | 16:04.70 | 2:33.20 | 72370 | 83864
8 | 18:38.15 | 2:57.05 | 83865 | 97144
9 | 21:35.20 | 2:26.67 | 97145 | 108161
10 | 24:02.12 | 2:01.48 | 108162 | 117284
11 | 26:03.60 | 2:29.35 | 117285 | 128494
12 | 28:33.20 | 3:10.60 | 128495 | 142804
13 | 31:44.05 | 2:22.50 | 142805 | 153504
14 | 34:06.55 | 2:37.50 | 153505 | 165329
15 | 36:44.30 | 2:09.45 | 165330 | 175049
16 | 38:54.00 | 2:49.68 | 175050 | 187792
17 | 41:43.68 | 2:43.47 | 187793 | 200064
18 | 44:27.40 | 2:27.50 | 200065 | 211139
19 | 46:55.15 | 2:02.00 | 211140 | 220289
20 | 48:57.15 | 2:07.35 | 220290 | 229849
21 | 51:04.50 | 3:15.35 | 229850 | 244509
22 | 54:20.10 | 1:59.36 | 244510 | 253470

Bereichsstatus und Fehler

Gewählter Bereich

Dateiname K:\Lemon Popsicle Soundtrack\Eskimo Limon Greatest Hits - 6\Various - Best Of Lemon Popsicle, CD 6.wav

Spitzenpegel 100.0 %
Bereichsqualität 100.0 %
Kopie CRC B58BE7EF
Kopie OK

Keine Fehler aufgetreten

AccurateRip Übersicht

Track 1 nicht in Datenbank enthalten
Track 2 nicht in Datenbank enthalten
Track 3 nicht in Datenbank enthalten
Track 4 nicht in Datenbank enthalten
Track 5 nicht in Datenbank enthalten
Track 6 nicht in Datenbank enthalten
Track 7 nicht in Datenbank enthalten
Track 8 nicht in Datenbank enthalten
Track 9 nicht in Datenbank enthalten
Track 10 nicht in Datenbank enthalten
Track 11 nicht in Datenbank enthalten
Track 12 nicht in Datenbank enthalten
Track 13 nicht in Datenbank enthalten
Track 14 nicht in Datenbank enthalten
Track 15 nicht in Datenbank enthalten
Track 16 nicht in Datenbank enthalten
Track 17 nicht in Datenbank enthalten
Track 18 nicht in Datenbank enthalten
Track 19 nicht in Datenbank enthalten
Track 20 nicht in Datenbank enthalten
Track 21 nicht in Datenbank enthalten
Track 22 nicht in Datenbank enthalten

Keiner der Tracks ist in der AccurateRip Datenbank vorhanden

Ende des Statusreports
Доп. информация: Перед вами три разных издания отличающиеся друг от друга не только разными трэклистами но и качеством записи а также местами и разным исполнением.Все рипы из личной коллекции,сканы 600 dpi прилагаются.Приятного прослушивания!

Трекер:  [ 08-Июл-2011 13:30 ]

  

Скачать .torrent

Размер .torrent файла 39 KB


Размер: 5.43 GB
Хэш (hash) релиза: e9a4a86230e221bb7ee92dac21e34c0fda727589

Торренты, похожие на Eis am Stiel, Lemon Popsicle, Eskimo Limon, Hot Bubblegum Горячая жевательная резинка скачать торрент

Форум Название Автор Размер S L Добавлен
Саундтреки к фильмам и мультфильмам (mp3) ·· (Soundtrack) Eis am Stiel, Lemon Popsicle, Eskimo Limon, Hot Bubblegum / Горячая жевательная резинка - (18 CD) - 1978-2001, MP3 (tracks), 320 kbps Galfimbul 30445613862.84 GB 0 0 1292265865

21:44

13-Дек-10

Еще никто не оставлял запись к записи скачать торрент Eis am Stiel, Lemon Popsicle, Eskimo Limon, Hot Bubblegum Горячая жевательная резинка . Будь первым!

!Обратная связь