Скачать через торрент музыку Барбарелла Barbarella бесплатно без регистрации torrent

Если у вас наблюдаются проблемы со скриншотами, переходом по ссылками, скачиванием торрентов - проблемы в блокировщике рекламы AdBlock. #хорошегоДня!


Статистика раздачи
Размер:  315 MB   |    Зарегистрирован:  4 года 6 месяцев   |    .torrent скачан:  27 раз   |   
Раздают:  1  
   
Загрузка...
 
Автор Сообщение

Galfimbul

avatar Galfimbul


Барбарелла / Barbarella

Название альбома: Barbarella
Жанр: Score
Композитор: Various Artists
Год выпуска диска: 2002
Год выпуска фильма: 1968
Страна-производитель диска: UK
Издатель (лейбл): Harkit Records
Номер по каталогу: HRKCD 8004
Аудиокодек: FLAC (*.flac)
Тип рипа: tracks+.cue
Битрейт аудио: lossless
Продолжительность: 1:04:49
Источник: скачано с
сайт-источник/ник/другое: what.cd
Наличие сканов в содержимом раздачи: нет
Треклист:
1. The Bob Crewe Generation Orchestra - Barbarella (2:38)
2. The Bob Crewe Generation Orchestra - Goodnight Alfie (1:27)
3. The Bob Crewe Generation Orchestra - Spaceship out of Control (1:29)
4. The Bob Crewe Generation Orchestra - Ski Ride (1:54)
5. The Bob Crewe Generation Orchestra - The Hungry Dolls (1:46)
6. The Glitterhouse - Love, Love, Love Drags me Down (3:40)
7. The Bob Crewe Generation Orchestra - Pygar Finds Barbarella (1:17)
8. The Bob Crewe Generation Orchestra - I Love all the Love in You (3:48)
9. The Bob Crewe Generation Orchestra - The Labyrynth (1:10)
10. The Bob Crewe Generation Orchestra - Pygar's New Wings (1:55)
11. The Bob Crewe Generation Orchestra - Fight in Flight (2:32)
12. The Bob Crewe Generation Orchestra - Entrance into Sogo (1:55)
13. The Bob Crewe Generation Orchestra - Hello Pretty Pretty (1:02)
14. The Bob Crewe Generation Orchestra - Pygar's Persecution (1:15)
15. The Bob Crewe Generation Orchestra - The Black Queen's Beads (3:29)
16. The Bob Crewe Generation Orchestra - Dead Duck (0:34)
17. The Bob Crewe Generation Orchestra - The Pill (1:02)
18. The Bob Crewe Generation Orchestra - Smoke (Viper Vapor) (2:15)
19. The Bob Crewe Generation Orchestra - The Sex Machine (3:15)
20. The Bob Crewe Generation Orchestra - The Chamber of Dreams (2:22)
21. The Bob Crewe Generation Orchestra - The Destruction of Sogo (2:25)
22. The Bob Crewe Generation Orchestra - An Angel Is Love (4:01)

Bonus tracks
23. The Young Lovers - Barbarella (3:08)
24. The Young Lovers - I Love all the Love in You (3:02)
25. The Young Lovers - Dead Duck (3:20)
26. The Young Lovers - Love, Love, Love Drags me Down (2:19)
27. The Young Lovers - Pygar's New Wings (3:00)
28. No Artist - Radio Spot 1 (0:59)
29. No Artist - Radio Spot 2 (0:56)
30. No Artist - Radio Spot 3 (0:54)
Exact Audio Copy V1.0 beta 3 from 29. August 2011

EAC extraction logfile from 16. February 2012, 20:51

Various Artists / Barbarella

Used drive : TSSTcorpCDDVDW TS-L633C Adapter: 2 ID: 0

Read mode : SecureUtilize accurate stream : YesDefeat audio cache : YesMake use of C2 pointers : No

Read offset correction : 6Overread into Lead-In and Lead-Out : NoFill up missing offset samples with silence : YesDelete leading and trailing silent blocks : NoNull samples used in CRC calculations : YesUsed interface : Native Win32 interface for Win NT & 2000Gap handling : Appended to previous track

Used output format : User Defined EncoderSelected bitrate : 128 kBit/sQuality : HighAdd ID3 tag : NoCommand line compressor : C:\Program Files (x86)\Exact Audio Copy\Flac\flac.exeAdditional command line options : -8 -V -T "ARTIST=%artist%" -T "TITLE=%title%" -T "ALBUM=%albumtitle%" -T "DATE=%year%" -T "TRACKNUMBER=%tracknr%" -T "GENRE=%genre%" -T "PERFORMER=%albuminterpret%" -T "COMPOSER=%composer%" %haslyrics%--tag-from-file=LYRICS="%lyricsfile%"%haslyrics% -T "ALBUMARTIST=%albumartist%" -T "ALBUM ARTIST=%albumartist%" -T "DISCNUMBER=%cdnumber%" -T "TOTALDISCS=%totalcds%" -T "TOTALTRACKS=%numtracks%" -T "COMMENT=EAC V1.0 beta 2, Secure Mode, Test & Copy, AccurateRip, FLAC -8" %source% -o %dest%

TOC of the extracted CD

Track | Start | Length | Start sector | End sector --------------------------------------------------------- 1 | 0:00.00 | 2:38.63 | 0 | 11912 2 | 2:38.63 | 1:27.44 | 11913 | 18481 3 | 4:06.32 | 1:29.50 | 18482 | 25206 4 | 5:36.07 | 1:54.68 | 25207 | 33824 5 | 7:31.00 | 1:46.73 | 33825 | 41847 6 | 9:17.73 | 3:40.12 | 41848 | 58359 7 | 12:58.10 | 1:17.58 | 58360 | 64192 8 | 14:15.68 | 3:48.64 | 64193 | 81356 9 | 18:04.57 | 1:10.63 | 81357 | 86669 10 | 19:15.45 | 1:55.71 | 86670 | 95365 11 | 21:11.41 | 2:32.07 | 95366 | 106772 12 | 23:43.48 | 1:55.71 | 106773 | 115468 13 | 25:39.44 | 1:02.34 | 115469 | 120152 14 | 26:42.03 | 1:15.34 | 120153 | 125811 15 | 27:57.37 | 3:29.19 | 125812 | 141505 16 | 31:26.56 | 0:34.37 | 141506 | 144092 17 | 32:01.18 | 1:02.12 | 144093 | 148754 18 | 33:03.30 | 2:15.21 | 148755 | 158900 19 | 35:18.51 | 3:15.33 | 158901 | 173558 20 | 38:34.09 | 2:22.31 | 173559 | 184239 21 | 40:56.40 | 2:25.25 | 184240 | 195139 22 | 43:21.65 | 4:01.70 | 195140 | 213284 23 | 47:23.60 | 3:08.17 | 213285 | 227401 24 | 50:32.02 | 3:02.66 | 227402 | 241117 25 | 53:34.68 | 3:20.36 | 241118 | 256153 26 | 56:55.29 | 2:19.23 | 256154 | 266601 27 | 59:14.52 | 3:00.42 | 266602 | 280143 28 | 62:15.19 | 0:59.12 | 280144 | 284580 29 | 63:14.31 | 0:56.44 | 284581 | 288824 30 | 64:11.00 | 0:54.68 | 288825 | 292942

Track 1

Filename G:\EACRIPS\Various Artists - Barbarella (1968) [FLAC]\01. The Bob Crewe Generation Orchestra - Barbarella.wav

Pre-gap length 0:00:02.00

Peak level 93.4 % Extraction speed 1.0 X Track quality 100.0 % Test CRC 991C467A Copy CRC 991C467A Accurately ripped (confidence 2) [931D6A0E] (AR v1) Copy OK

Track 2

Filename G:\EACRIPS\Various Artists - Barbarella (1968) [FLAC]\02. The Bob Crewe Generation Orchestra - Goodnight Alfie.wav

Peak level 64.3 % Extraction speed 0.8 X Track quality 100.0 % Test CRC A0B53274 Copy CRC A0B53274 Accurately ripped (confidence 2) [DF39ECE4] (AR v1) Copy OK

Track 3

Filename G:\EACRIPS\Various Artists - Barbarella (1968) [FLAC]\03. The Bob Crewe Generation Orchestra - Spaceship out of Control.wav

Peak level 85.5 % Extraction speed 0.9 X Track quality 100.0 % Test CRC 61A8E6AC Copy CRC 61A8E6AC Accurately ripped (confidence 2) [66617309] (AR v1) Copy OK

Track 4

Filename G:\EACRIPS\Various Artists - Barbarella (1968) [FLAC]\04. The Bob Crewe Generation Orchestra - Ski Ride.wav

Peak level 89.9 % Extraction speed 1.0 X Track quality 100.0 % Test CRC F19BEED7 Copy CRC F19BEED7 Accurately ripped (confidence 2) [1F41C147] (AR v1) Copy OK

Track 5

Filename G:\EACRIPS\Various Artists - Barbarella (1968) [FLAC]\05. The Bob Crewe Generation Orchestra - The Hungry Dolls.wav

Peak level 82.0 % Extraction speed 1.0 X Track quality 100.0 % Test CRC 92A9A21B Copy CRC 92A9A21B Accurately ripped (confidence 2) [40E37393] (AR v1) Copy OK

Track 6

Filename G:\EACRIPS\Various Artists - Barbarella (1968) [FLAC]\06. The Bob Crewe Generation Orchestra - Love, Love, Love Drags me Down.wav

Peak level 100.0 % Extraction speed 1.3 X Track quality 100.0 % Test CRC CCDE55A3 Copy CRC CCDE55A3 Accurately ripped (confidence 2) [B660CBE0] (AR v1) Copy OK

Track 7

Filename G:\EACRIPS\Various Artists - Barbarella (1968) [FLAC]\07. The Bob Crewe Generation Orchestra - Pygar Finds Barbarella.wav

Pre-gap length 0:00:00.08

Peak level 89.2 % Extraction speed 1.0 X Track quality 100.0 % Test CRC 249DF812 Copy CRC 249DF812 Accurately ripped (confidence 2) [7453DC9E] (AR v1) Copy OK

Track 8

Filename G:\EACRIPS\Various Artists - Barbarella (1968) [FLAC]\08. The Bob Crewe Generation Orchestra - I Love all the Love in You.wav

Peak level 94.4 % Extraction speed 1.4 X Track quality 100.0 % Test CRC 0E670BF4 Copy CRC 0E670BF4 Accurately ripped (confidence 2) [67A0EE3F] (AR v1) Copy OK

Track 9

Filename G:\EACRIPS\Various Artists - Barbarella (1968) [FLAC]\09. The Bob Crewe Generation Orchestra - The Labyrynth.wav

Pre-gap length 0:00:02.53

Peak level 39.6 % Extraction speed 1.0 X Track quality 100.0 % Test CRC 9E8181F5 Copy CRC 9E8181F5 Accurately ripped (confidence 2) [B8E1705C] (AR v1) Copy OK

Track 10

Filename G:\EACRIPS\Various Artists - Barbarella (1968) [FLAC]\10. The Bob Crewe Generation Orchestra - Pygar's New Wings.wav

Peak level 85.9 % Extraction speed 1.3 X Track quality 100.0 % Test CRC 8E965782 Copy CRC 8E965782 Accurately ripped (confidence 2) [63527919] (AR v1) Copy OK

Track 11

Filename G:\EACRIPS\Various Artists - Barbarella (1968) [FLAC]\11. The Bob Crewe Generation Orchestra - Fight in Flight.wav

Peak level 100.0 % Extraction speed 1.4 X Track quality 100.0 % Test CRC B7EBB30B Copy CRC B7EBB30B Accurately ripped (confidence 2) [37129ED4] (AR v1) Copy OK

Track 12

Filename G:\EACRIPS\Various Artists - Barbarella (1968) [FLAC]\12. The Bob Crewe Generation Orchestra - Entrance into Sogo.wav

Pre-gap length 0:00:00.81

Peak level 94.7 % Extraction speed 1.4 X Track quality 100.0 % Test CRC BE6F8436 Copy CRC BE6F8436 Accurately ripped (confidence 2) [8862C63A] (AR v1) Copy OK

Track 13

Filename G:\EACRIPS\Various Artists - Barbarella (1968) [FLAC]\13. The Bob Crewe Generation Orchestra - Hello Pretty Pretty.wav

Peak level 63.0 % Extraction speed 1.1 X Track quality 100.0 % Test CRC 3CCCFB73 Copy CRC 3CCCFB73 Accurately ripped (confidence 2) [7D59BFE8] (AR v1) Copy OK

Track 14

Filename G:\EACRIPS\Various Artists - Barbarella (1968) [FLAC]\14. The Bob Crewe Generation Orchestra - Pygar's Persecution.wav

Peak level 79.7 % Extraction speed 1.2 X Track quality 100.0 % Test CRC FBDF56C0 Copy CRC FBDF56C0 Accurately ripped (confidence 2) [7C751F66] (AR v1) Copy OK

Track 15

Filename G:\EACRIPS\Various Artists - Barbarella (1968) [FLAC]\15. The Bob Crewe Generation Orchestra - The Black Queen's Beads.wav

Peak level 95.1 % Extraction speed 1.6 X Track quality 100.0 % Test CRC C7BCCB4B Copy CRC C7BCCB4B Accurately ripped (confidence 2) [6AFF50F7] (AR v1) Copy OK

Track 16

Filename G:\EACRIPS\Various Artists - Barbarella (1968) [FLAC]\16. The Bob Crewe Generation Orchestra - Dead Duck.wav

Peak level 95.6 % Extraction speed 0.6 X Track quality 99.6 % Test CRC 5479AE7C Copy CRC 5479AE7C Accurately ripped (confidence 2) [4EE76948] (AR v1) Copy OK

Track 17

Filename G:\EACRIPS\Various Artists - Barbarella (1968) [FLAC]\17. The Bob Crewe Generation Orchestra - The Pill.wav

Peak level 96.5 % Extraction speed 1.2 X Track quality 100.0 % Test CRC B6900A5D Copy CRC B6900A5D Accurately ripped (confidence 2) [94F01140] (AR v1) Copy OK

Track 18

Filename G:\EACRIPS\Various Artists - Barbarella (1968) [FLAC]\18. The Bob Crewe Generation Orchestra - Smoke (Viper Vapor).wav

Peak level 100.0 % Extraction speed 1.6 X Track quality 100.0 % Test CRC 83DAA304 Copy CRC 83DAA304 Cannot be verified as accurate (confidence 2) [AFA41665], AccurateRip returned [9D8B3521] (AR v2) Copy OK

Track 19

Filename G:\EACRIPS\Various Artists - Barbarella (1968) [FLAC]\19. The Bob Crewe Generation Orchestra - The Sex Machine.wav

Peak level 100.0 % Extraction speed 1.4 X Track quality 100.0 % Test CRC 79B7F671 Copy CRC 79B7F671 Accurately ripped (confidence 2) [7C07F20D] (AR v1) Copy OK

Track 20

Filename G:\EACRIPS\Various Artists - Barbarella (1968) [FLAC]\20. The Bob Crewe Generation Orchestra - The Chamber of Dreams.wav

Peak level 81.5 % Extraction speed 1.4 X Track quality 99.9 % Test CRC D889D02F Copy CRC D889D02F Accurately ripped (confidence 2) [F8165202] (AR v1) Copy OK

Track 21

Filename G:\EACRIPS\Various Artists - Barbarella (1968) [FLAC]\21. The Bob Crewe Generation Orchestra - The Destruction of Sogo.wav

Peak level 80.4 % Extraction speed 1.7 X Track quality 100.0 % Test CRC BEC2A3B0 Copy CRC BEC2A3B0 Accurately ripped (confidence 2) [10BD0C2D] (AR v1) Copy OK

Track 22

Filename G:\EACRIPS\Various Artists - Barbarella (1968) [FLAC]\22. The Bob Crewe Generation Orchestra - An Angel Is Love.wav

Pre-gap length 0:00:00.14

Peak level 93.5 % Extraction speed 1.9 X Track quality 100.0 % Test CRC C6B8BA14 Copy CRC C6B8BA14 Accurately ripped (confidence 2) [9DE39D7D] (AR v1) Copy OK

Track 23

Filename G:\EACRIPS\Various Artists - Barbarella (1968) [FLAC]\23. The Young Lovers - Barbarella.wav

Pre-gap length 0:00:01.70

Peak level 97.1 % Extraction speed 1.6 X Track quality 99.9 % Test CRC AE37EDC1 Copy CRC AE37EDC1 Accurately ripped (confidence 2) [3FD7B59B] (AR v1) Copy OK

Track 24

Filename G:\EACRIPS\Various Artists - Barbarella (1968) [FLAC]\24. The Young Lovers - I Love all the Love in You.wav

Pre-gap length 0:00:02.12

Peak level 99.4 % Extraction speed 1.9 X Track quality 100.0 % Test CRC 2DBA2E39 Copy CRC 2DBA2E39 Accurately ripped (confidence 2) [F9708083] (AR v1) Copy OK

Track 25

Filename G:\EACRIPS\Various Artists - Barbarella (1968) [FLAC]\25. The Young Lovers - Dead Duck.wav

Pre-gap length 0:00:01.76

Peak level 96.7 % Extraction speed 1.7 X Track quality 99.9 % Test CRC 89DC3065 Copy CRC 89DC3065 Accurately ripped (confidence 2) [95114319] (AR v1) Copy OK

Track 26

Filename G:\EACRIPS\Various Artists - Barbarella (1968) [FLAC]\26. The Young Lovers - Love, Love, Love Drags me Down.wav

Pre-gap length 0:00:02.00

Peak level 84.9 % Extraction speed 1.9 X Track quality 100.0 % Test CRC 7531FA6B Copy CRC 7531FA6B Accurately ripped (confidence 2) [1585A1F5] (AR v1) Copy OK

Track 27

Filename G:\EACRIPS\Various Artists - Barbarella (1968) [FLAC]\27. The Young Lovers - Pygar's New Wings.wav

Pre-gap length 0:00:01.88

Peak level 97.8 % Extraction speed 1.7 X Track quality 99.9 % Test CRC CCEA596F Copy CRC CCEA596F Accurately ripped (confidence 2) [F0E6435E] (AR v1) Copy OK

Track 28

Filename G:\EACRIPS\Various Artists - Barbarella (1968) [FLAC]\28. No Artist - Radio Spot 1.wav

Pre-gap length 0:00:02.16

Peak level 55.2 % Extraction speed 1.5 X Track quality 100.0 % Test CRC 1938C71A Copy CRC 1938C71A Accurately ripped (confidence 2) [3B69811C] (AR v1) Copy OK

Track 29

Filename G:\EACRIPS\Various Artists - Barbarella (1968) [FLAC]\29. No Artist - Radio Spot 2.wav

Pre-gap length 0:00:01.90

Peak level 60.5 % Extraction speed 1.4 X Track quality 100.0 % Test CRC A5763615 Copy CRC A5763615 Accurately ripped (confidence 2) [7748388F] (AR v1) Copy OK

Track 30

Filename G:\EACRIPS\Various Artists - Barbarella (1968) [FLAC]\30. No Artist - Radio Spot 3.wav

Pre-gap length 0:00:01.61

Peak level 57.8 % Extraction speed 1.5 X Track quality 100.0 % Test CRC 4E840B6D Copy CRC 4E840B6D Cannot be verified as accurate (confidence 2) [D9E4220E], AccurateRip returned [1A0B3D4C] (AR v2) Copy OK

28 track(s) accurately ripped 2 track(s) could not be verified as accurate

Some tracks could not be verified as accurate

No errors occurred

End of status report

---- CUETools DB Plugin V2.1.3

[CTDB TOCID: UULPyNa7eWIODrvntR3_bvQKEr8-] disk not present in database, Submit result: database access error: La demande a été abandonnée : La demande a été annulée.

==== Log checksum B1E8BE79D0126F10E9597E0D875D93A7C5FD57CCE6BF63C821E37908F6565DC7 ====
REM GENRE SoundtrackREM DATE 1968REM DISCID C40F411EREM COMMENT "ExactAudioCopy v1.0b3"PERFORMER "Various Artists"TITLE "Barbarella"FILE "Various Artists - Barbarella (1968) [FLAC]\01. The Bob Crewe Generation Orchestra - Barbarella.wav" WAVE TRACK 01 AUDIO TITLE "Barbarella" PERFORMER "The Bob Crewe Generation Orchestra" INDEX 01 00:00:00FILE "Various Artists - Barbarella (1968) [FLAC]\02. The Bob Crewe Generation Orchestra - Goodnight Alfie.wav" WAVE TRACK 02 AUDIO TITLE "Goodnight Alfie" PERFORMER "The Bob Crewe Generation Orchestra" INDEX 01 00:00:00FILE "Various Artists - Barbarella (1968) [FLAC]\03. The Bob Crewe Generation Orchestra - Spaceship out of Control.wav" WAVE TRACK 03 AUDIO TITLE "Spaceship out of Control" PERFORMER "The Bob Crewe Generation Orchestra" INDEX 01 00:00:00FILE "Various Artists - Barbarella (1968) [FLAC]\04. The Bob Crewe Generation Orchestra - Ski Ride.wav" WAVE TRACK 04 AUDIO TITLE "Ski Ride" PERFORMER "The Bob Crewe Generation Orchestra" INDEX 01 00:00:00FILE "Various Artists - Barbarella (1968) [FLAC]\05. The Bob Crewe Generation Orchestra - The Hungry Dolls.wav" WAVE TRACK 05 AUDIO TITLE "The Hungry Dolls" PERFORMER "The Bob Crewe Generation Orchestra" INDEX 01 00:00:00FILE "Various Artists - Barbarella (1968) [FLAC]\06. The Bob Crewe Generation Orchestra - Love, Love, Love Drags me Down.wav" WAVE TRACK 06 AUDIO TITLE "Love, Love, Love Drags me Down" PERFORMER "The Bob Crewe Generation Orchestra" INDEX 01 00:00:00 TRACK 07 AUDIO TITLE "Pygar Finds Barbarella" PERFORMER "The Bob Crewe Generation Orchestra" INDEX 00 03:40:06FILE "Various Artists - Barbarella (1968) [FLAC]\07. The Bob Crewe Generation Orchestra - Pygar Finds Barbarella.wav" WAVE INDEX 01 00:00:00FILE "Various Artists - Barbarella (1968) [FLAC]\08. The Bob Crewe Generation Orchestra - I Love all the Love in You.wav" WAVE TRACK 08 AUDIO TITLE "I Love all the Love in You" PERFORMER "The Bob Crewe Generation Orchestra" INDEX 01 00:00:00 TRACK 09 AUDIO TITLE "The Labyrynth" PERFORMER "The Bob Crewe Generation Orchestra" INDEX 00 03:46:24FILE "Various Artists - Barbarella (1968) [FLAC]\09. The Bob Crewe Generation Orchestra - The Labyrynth.wav" WAVE INDEX 01 00:00:00FILE "Various Artists - Barbarella (1968) [FLAC]\10. The Bob Crewe Generation Orchestra - Pygar's New Wings.wav" WAVE TRACK 10 AUDIO TITLE "Pygar's New Wings" PERFORMER "The Bob Crewe Generation Orchestra" INDEX 01 00:00:00FILE "Various Artists - Barbarella (1968) [FLAC]\11. The Bob Crewe Generation Orchestra - Fight in Flight.wav" WAVE TRACK 11 AUDIO TITLE "Fight in Flight" PERFORMER "The Bob Crewe Generation Orchestra" INDEX 01 00:00:00 TRACK 12 AUDIO TITLE "Entrance into Sogo" PERFORMER "The Bob Crewe Generation Orchestra" INDEX 00 02:31:21FILE "Various Artists - Barbarella (1968) [FLAC]\12. The Bob Crewe Generation Orchestra - Entrance into Sogo.wav" WAVE INDEX 01 00:00:00FILE "Various Artists - Barbarella (1968) [FLAC]\13. The Bob Crewe Generation Orchestra - Hello Pretty Pretty.wav" WAVE TRACK 13 AUDIO TITLE "Hello Pretty Pretty" PERFORMER "The Bob Crewe Generation Orchestra" INDEX 01 00:00:00FILE "Various Artists - Barbarella (1968) [FLAC]\14. The Bob Crewe Generation Orchestra - Pygar's Persecution.wav" WAVE TRACK 14 AUDIO TITLE "Pygar's Persecution" PERFORMER "The Bob Crewe Generation Orchestra" INDEX 01 00:00:00FILE "Various Artists - Barbarella (1968) [FLAC]\15. The Bob Crewe Generation Orchestra - The Black Queen's Beads.wav" WAVE TRACK 15 AUDIO TITLE "The Black Queen's Beads" PERFORMER "The Bob Crewe Generation Orchestra" INDEX 01 00:00:00FILE "Various Artists - Barbarella (1968) [FLAC]\16. The Bob Crewe Generation Orchestra - Dead Duck.wav" WAVE TRACK 16 AUDIO TITLE "Dead Duck" PERFORMER "The Bob Crewe Generation Orchestra" INDEX 01 00:00:00FILE "Various Artists - Barbarella (1968) [FLAC]\17. The Bob Crewe Generation Orchestra - The Pill.wav" WAVE TRACK 17 AUDIO TITLE "The Pill" PERFORMER "The Bob Crewe Generation Orchestra" INDEX 01 00:00:00FILE "Various Artists - Barbarella (1968) [FLAC]\18. The Bob Crewe Generation Orchestra - Smoke (Viper Vapor).wav" WAVE TRACK 18 AUDIO TITLE "Smoke (Viper Vapor)" PERFORMER "The Bob Crewe Generation Orchestra" INDEX 01 00:00:00FILE "Various Artists - Barbarella (1968) [FLAC]\19. The Bob Crewe Generation Orchestra - The Sex Machine.wav" WAVE TRACK 19 AUDIO TITLE "The Sex Machine" PERFORMER "The Bob Crewe Generation Orchestra" INDEX 01 00:00:00FILE "Various Artists - Barbarella (1968) [FLAC]\20. The Bob Crewe Generation Orchestra - The Chamber of Dreams.wav" WAVE TRACK 20 AUDIO TITLE "The Chamber of Dreams" PERFORMER "The Bob Crewe Generation Orchestra" INDEX 01 00:00:00FILE "Various Artists - Barbarella (1968) [FLAC]\21. The Bob Crewe Generation Orchestra - The Destruction of Sogo.wav" WAVE TRACK 21 AUDIO TITLE "The Destruction of Sogo" PERFORMER "The Bob Crewe Generation Orchestra" INDEX 01 00:00:00 TRACK 22 AUDIO TITLE "An Angel Is Love" PERFORMER "The Bob Crewe Generation Orchestra" INDEX 00 02:25:14FILE "Various Artists - Barbarella (1968) [FLAC]\22. The Bob Crewe Generation Orchestra - An Angel Is Love.wav" WAVE INDEX 01 00:00:00 TRACK 23 AUDIO TITLE "Barbarella" PERFORMER "The Young Lovers" INDEX 00 04:00:17FILE "Various Artists - Barbarella (1968) [FLAC]\23. The Young Lovers - Barbarella.wav" WAVE INDEX 01 00:00:00 TRACK 24 AUDIO TITLE "I Love all the Love in You" PERFORMER "The Young Lovers" INDEX 00 03:06:08FILE "Various Artists - Barbarella (1968) [FLAC]\24. The Young Lovers - I Love all the Love in You.wav" WAVE INDEX 01 00:00:00 TRACK 25 AUDIO TITLE "Dead Duck" PERFORMER "The Young Lovers" INDEX 00 03:01:09FILE "Various Artists - Barbarella (1968) [FLAC]\25. The Young Lovers - Dead Duck.wav" WAVE INDEX 01 00:00:00 TRACK 26 AUDIO TITLE "Love, Love, Love Drags me Down" PERFORMER "The Young Lovers" INDEX 00 03:18:36FILE "Various Artists - Barbarella (1968) [FLAC]\26. The Young Lovers - Love, Love, Love Drags me Down.wav" WAVE INDEX 01 00:00:00 TRACK 27 AUDIO TITLE "Pygar's New Wings" PERFORMER "The Young Lovers" INDEX 00 02:17:32FILE "Various Artists - Barbarella (1968) [FLAC]\27. The Young Lovers - Pygar's New Wings.wav" WAVE INDEX 01 00:00:00 TRACK 28 AUDIO TITLE "Radio Spot 1" PERFORMER "No Artist" INDEX 00 02:58:30FILE "Various Artists - Barbarella (1968) [FLAC]\28. No Artist - Radio Spot 1.wav" WAVE INDEX 01 00:00:00 TRACK 29 AUDIO TITLE "Radio Spot 2" PERFORMER "No Artist" INDEX 00 00:57:19FILE "Various Artists - Barbarella (1968) [FLAC]\29. No Artist - Radio Spot 2.wav" WAVE INDEX 01 00:00:00 TRACK 30 AUDIO TITLE "Radio Spot 3" PERFORMER "No Artist" INDEX 00 00:54:73FILE "Various Artists - Barbarella (1968) [FLAC]\30. No Artist - Radio Spot 3.wav" WAVE INDEX 01 00:00:00


Трекер:  [ 12-Июн-2013 16:36 ]

  

Скачать .torrent

Размер .torrent файла 15 KB


Размер: 315 MB
Хэш (hash) релиза: 1de10a44db6caad92c83bf25a180ed756f5e6c5a

bot

Топик был перенесен в форум Саундтреки к фильмам и мультфильмам (lossless)

Перенес Galfimbul

Хотите добавить комментарий к записи скачать торрент Барбарелла Barbarella

!Обратная связь