Скачать через торрент музыку And The Ass Saw The Angel. Readings & Music - Nick Cave, Mick Harvey, Ed Clayton-Jones -1998, FLAC бесплатно без регистрации torrent

Если у вас наблюдаются проблемы со скриншотами, переходом по ссылками, скачиванием торрентов - проблемы в блокировщике рекламы AdBlock. #хорошегоДня!


Статистика раздачи
Размер:  211 MB   |    Зарегистрирован:  6 лет 5 месяцев   |    .torrent скачан:  28 раз   |   
Раздают:  1  
   
Загрузка...
 
Автор Сообщение

Galfimbul

avatar Galfimbul


And The Ass Saw The Angel.

Жанр: Readings, Theatre Music
Год выпуска диска: 1998
Производитель диска: Great Britain
Аудио кодек: FLAC
Тип рипа: image+.cue
Битрейт аудио: lossless
Продолжительность: 45:12
Трэклист:
Readings by Nick Cave:
1. Mah Sanctum
2. Lamentation
3. One Autumn
4. Animal Static

Theatre Music by Mick Harvey & Ed Clayton-Jones:
5. Sleepy River Piano
6. Doghead
7. Pa's Traps
8. Cosey's Lullaby (Nick Cave, Edward Clayton-Jones, Mick Harvey)
9. Sanctum
10. Hobo Church
11. Sleepy River Swoon
13. Euchrid on the Run
14. Beth's Sleepy River (Nick Cave, Edward Clayton-Jones, Mick Harvey)
15. Doghead Revisited
16. Angels

Доп. информация:
Избранные страницы первой книги Ника Кейва "And The Ass Saw The Angel" в исполнении автора. - We call upon the Author to explain.
Музыка к одноимённой театральной постановке Ariett Taylor, состоявшейся в Мельбурне в октябре 1993 года. На музыкальных инстрементах играют - Mick Harvey и Ed Clayton-Jones, вокал - Katy Beale.
Exact Audio Copy V0.99 prebeta 5 from 4. May 2009

Отчёт EAC об извлечении, выполненном 30. августа 2009, 11:36

Nick Cave, Mick Harvey and Ed Clayton-Jones / And the Ass Saw the Angel

Дисковод: Optiarc DVD RW AD-7201S Adapter: 2 ID: 0

Режим чтения : Достоверность
Использование точного потока : Да
Отключение кэша аудио : Да
Использование указателей C2 : Нет

Коррекция смещения при чтении : 48
Способность читать области Lead-in и Lead-out : Нет
Заполнение пропущенных сэмплов тишиной : Да
Удаление блоков с тишиной в начале и конце : Нет
При вычислениях CRC использовались нулевые сэмплы : Да
Интерфейс : Встроенный Win32-интерфейс для Win NT/2000

Выходной формат : Пользовательский кодировщик
Выбранный битрейт : 1024 kBit/s
Качество : Высокий
Добавление ID3-тэга : Нет
Утилита сжатия : C:\Program Files\Exact Audio Copy\FLAC\FLAC.EXE
Дополнительные параметры : -8 -V -T "ARTIST=%a" -T "TITLE=%t" -T "ALBUM=%g" -T "DATE=%y" -T "TRACKNUMBER=%n" -T "GENRE=%m" -T "COMMENT=%e" %s -o %d
Смещение при сжатии : 48

TOC извлечённого CD

Трек | Старт | Длительность | Начальный сектор | Конечный сектор
---------------------------------------------------------------------
1 | 0:00.00 | 3:57.07 | 0 | 17781
2 | 3:57.07 | 3:42.13 | 17782 | 34444
3 | 7:39.20 | 2:28.12 | 34445 | 45556
4 | 10:07.32 | 4:11.05 | 45557 | 64386
5 | 14:18.37 | 1:50.30 | 64387 | 72666
6 | 16:08.67 | 4:12.10 | 72667 | 91576
7 | 20:21.02 | 2:37.68 | 91577 | 103419
8 | 22:58.70 | 2:46.12 | 103420 | 115881
9 | 25:45.07 | 3:38.28 | 115882 | 132259
10 | 29:23.35 | 1:48.10 | 132260 | 140369
11 | 31:11.45 | 2:21.65 | 140370 | 151009
12 | 33:33.35 | 2:33.35 | 151010 | 162519
13 | 36:06.70 | 1:50.70 | 162520 | 170839
14 | 37:57.65 | 2:50.57 | 170840 | 183646
15 | 40:48.47 | 3:13.60 | 183647 | 198181
16 | 44:02.32 | 1:16.43 | 198182 | 203924

Характеристики диапазона извлечения и сообщения об ошибках

Выбранный диапазон

Имя файла H:\GREAT CAVE UPLOAD\aSSaw\Nick Cave, Mick Harvey and Ed Clayton-Jones - And the Ass Saw the Angel.wav

Пиковый уровень 100.0 %
Качество диапазона 100.0 %
CRC теста A98E17B7
CRC копии A98E17B7
Копирование... OK

Ошибок не произошло

AccurateRip: сводка

Трек 1 точное извлечение (доверие 6) [97C4BDF0]
Трек 2 точное извлечение (доверие 6) [E51C3B2F]
Трек 3 точное извлечение (доверие 6) [2D57A04A]
Трек 4 точное извлечение (доверие 6) [BC9105B6]
Трек 5 точное извлечение (доверие 6) [DCB589C1]
Трек 6 точное извлечение (доверие 6) [1DB43D06]
Трек 7 точное извлечение (доверие 6) [2C5CD0AA]
Трек 8 точное извлечение (доверие 6) [A6BA326B]
Трек 9 точное извлечение (доверие 6) [724C68CB]
Трек 10 точное извлечение (доверие 6) [9B4DAE92]
Трек 11 точное извлечение (доверие 6) [489B7B57]
Трек 12 точное извлечение (доверие 6) [B1FC24CF]
Трек 13 точное извлечение (доверие 6) [C4FAD63C]
Трек 14 точное извлечение (доверие 6) [83AE38DC]
Трек 15 точное извлечение (доверие 6) [CF896DCA]
Трек 16 точное извлечение (доверие 6) [5262F571]

Все треки извлечены точно

Конец отчёта
торрент перезалит в соответствии с замечаниями Не_Нет'а

Трекер:  [ 08-Июл-2011 13:28 ]

  

Скачать .torrent

Размер .torrent файла 17 KB


Размер: 211 MB
Хэш (hash) релиза: e95c435fe819b9e264909aea33d3f8a075bf373c

Еще никто не оставлял запись к записи скачать торрент And The Ass Saw The Angel. Readings & Music - Nick Cave, Mick Harvey, Ed Clayton-Jones -1998, FLAC . Будь первым!

!Обратная связь