Скачать через торрент музыку Henry Mancini - All Time Greatest Hits: Volume I - 1990, FLAC бесплатно без регистрации torrent

Если у вас наблюдаются проблемы со скриншотами, переходом по ссылками, скачиванием торрентов - проблемы в блокировщике рекламы AdBlock. #хорошегоДня!


Статистика раздачи
Размер:  211 MB   |    Зарегистрирован:  6 лет 5 месяцев   |    .torrent скачан:  42 раза   |   
Раздают:  1  
   
Загрузка...
 
Автор Сообщение

Galfimbul

avatar Galfimbul


Henry Mancini - All Time Greatest Hits: Volume I

Жанр: Score / Compilation
Год выпуска диска: 1990
Аудио кодек: FLAC
Тип рипа: tracks+.cue
Битрейт аудио: lossless
Трэклист:
1. Mr. Lucky (2:12)
2. Moon River (with Johnny Mercer) (2:42)
3. Baby Elephant Walk (2:39)
4. Experiment In Terror (2:19)
5. Days Of Wine And Roses (with Johnny Mercer) (2:07)
6. Charade (with Johnny Mercer) (2:09)
7. The Pink Panther Theme (2:36)
8. The Sweetheart Tree (with Johnny Mercer) (1:56)
9. Theme From "The Great Imposter" (2:49)
10. A Shot In The Dark (2:32)
11. Love Theme From "Romeo And Juliet" (Nino Rota) (2:33)
12. Two For The Road [Instrumental] (with Leslie Bricusse) (3:16)
13. Theme From "Z" (Mikis Theodorakis) (2:03)
14. Theme From "Love Story" (Where Do I Begin) (Francis Lai) (2:51)
15. Peter Gunn (2:06)
 
Exact Audio Copy V0.99 prebeta 4 from 23. January 2008

EAC extraction logfile from 17. November 2008, 18:49

Henry Mancini / All Time Greatest Hits Volume I

Used drive : HL-DT-STDVD+-RW GSA-T21N Adapter: 1 ID: 0

Read mode : SecureUtilize accurate stream : YesDefeat audio cache : YesMake use of C2 pointers : No

Read offset correction : 667Overread into Lead-In and Lead-Out : NoFill up missing offset samples with silence : YesDelete leading and trailing silent blocks : NoNull samples used in CRC calculations : YesUsed interface : Native Win32 interface for Win NT & 2000Gap handling : Appended to previous track

Used output format : User Defined EncoderSelected bitrate : 768 kBit/sQuality : HighAdd ID3 tag : NoCommand line compressor : C:\Program Files\Exact Audio Copy\FLAC\FLAC.EXEAdditional command line options : -V -8 -T "artist=%a" -T "title=%t" -T "album=%g" -T "date=%y" -T "tracknumber=%n" -T "genre=%m" %s

TOC of the extracted CD

Track | Start | Length | Start sector | End sector --------------------------------------------------------- 1 | 0:00.00 | 2:15.18 | 0 | 10142 2 | 2:15.18 | 2:42.35 | 10143 | 22327 3 | 4:57.53 | 2:41.30 | 22328 | 34432 4 | 7:39.08 | 2:20.40 | 34433 | 44972 5 | 9:59.48 | 2:09.00 | 44973 | 54647 6 | 12:08.48 | 2:10.55 | 54648 | 64452 7 | 14:19.28 | 2:38.52 | 64453 | 76354 8 | 16:58.05 | 1:58.40 | 76355 | 85244 9 | 18:56.45 | 2:50.55 | 85245 | 98049 10 | 21:47.25 | 2:34.20 | 98050 | 109619 11 | 24:21.45 | 2:34.53 | 109620 | 121222 12 | 26:56.23 | 3:17.00 | 121223 | 135997 13 | 30:13.23 | 2:06.30 | 135998 | 145477 14 | 32:19.53 | 2:53.25 | 145478 | 158477 15 | 35:13.03 | 2:04.55 | 158478 | 167832

Track 1

Filename C:\Documents and Settings\Ben\Desktop\All Time Greatest Hits Volume I - 1964\01 - Henry Mancini - Mr. Lucky.wav

Pre-gap length 0:00:02.00

Peak level 86.4 % Track quality 100.0 % Test CRC A82A945B Copy CRC A82A945B Cannot be verified as accurate (confidence 3) [BA51264D], AccurateRip returned [BA90A1EC] Copy OK

Track 2

Filename C:\Documents and Settings\Ben\Desktop\All Time Greatest Hits Volume I - 1964\02 - Henry Mancini - Moon River.wav

Pre-gap length 0:00:02.03

Peak level 83.8 % Track quality 100.0 % Test CRC 338A6736 Copy CRC 338A6736 Cannot be verified as accurate (confidence 3) [3E727372], AccurateRip returned [1AC6F24D] Copy OK

Track 3

Filename C:\Documents and Settings\Ben\Desktop\All Time Greatest Hits Volume I - 1964\03 - Henry Mancini - Baby Elephant Walk.wav

Pre-gap length 0:00:01.70

Peak level 97.1 % Track quality 100.0 % Test CRC BE166278 Copy CRC BE166278 Cannot be verified as accurate (confidence 3) [BA133206], AccurateRip returned [E72E3110] Copy OK

Track 4

Filename C:\Documents and Settings\Ben\Desktop\All Time Greatest Hits Volume I - 1964\04 - Henry Mancini - Experiment in Terror.wav

Pre-gap length 0:00:02.53

Peak level 89.5 % Track quality 100.0 % Test CRC B9FB28AF Copy CRC B9FB28AF Cannot be verified as accurate (confidence 3) [78846B9C], AccurateRip returned [0F2297AD] Copy OK

Track 5

Filename C:\Documents and Settings\Ben\Desktop\All Time Greatest Hits Volume I - 1964\05 - Henry Mancini - Days of Wine And Roses.wav

Pre-gap length 0:00:02.25

Peak level 71.5 % Track quality 100.0 % Test CRC 7B65E884 Copy CRC 7B65E884 Cannot be verified as accurate (confidence 3) [DEC5EEAB], AccurateRip returned [22D24006] Copy OK

Track 6

Filename C:\Documents and Settings\Ben\Desktop\All Time Greatest Hits Volume I - 1964\06 - Henry Mancini - Charade.wav

Pre-gap length 0:00:02.35

Peak level 84.1 % Track quality 100.0 % Test CRC 2CE178BA Copy CRC 2CE178BA Cannot be verified as accurate (confidence 3) [B254396F], AccurateRip returned [9307540F] Copy OK

Track 7

Filename C:\Documents and Settings\Ben\Desktop\All Time Greatest Hits Volume I - 1964\07 - Henry Mancini - The Pink Panther Theme.wav

Pre-gap length 0:00:01.33

Peak level 92.9 % Track quality 100.0 % Test CRC D462E82C Copy CRC D462E82C Cannot be verified as accurate (confidence 3) [33922EF9], AccurateRip returned [0687B6E0] Copy OK

Track 8

Filename C:\Documents and Settings\Ben\Desktop\All Time Greatest Hits Volume I - 1964\08 - Henry Mancini - The Sweetheart Tree.wav

Pre-gap length 0:00:02.22

Peak level 88.1 % Track quality 99.9 % Test CRC EAF85A4B Copy CRC EAF85A4B Cannot be verified as accurate (confidence 3) [72B753D6], AccurateRip returned [89CD30AC] Copy OK

Track 9

Filename C:\Documents and Settings\Ben\Desktop\All Time Greatest Hits Volume I - 1964\09 - Henry Mancini - Theme From The Great Imposter.wav

Pre-gap length 0:00:01.70

Peak level 90.0 % Track quality 100.0 % Test CRC 39403DAB Copy CRC 39403DAB Cannot be verified as accurate (confidence 3) [48AC340E], AccurateRip returned [0C5255D5] Copy OK

Track 10

Filename C:\Documents and Settings\Ben\Desktop\All Time Greatest Hits Volume I - 1964\10 - Henry Mancini - A Shot in the Dark.wav

Pre-gap length 0:00:01.37

Peak level 90.4 % Track quality 100.0 % Test CRC A6FFFA56 Copy CRC A6FFFA56 Cannot be verified as accurate (confidence 3) [E818E412], AccurateRip returned [70E9D4CE] Copy OK

Track 11

Filename C:\Documents and Settings\Ben\Desktop\All Time Greatest Hits Volume I - 1964\11 - Henry Mancini - Love Theme From Romeo and Juliet.wav

Pre-gap length 0:00:02.35

Peak level 86.3 % Track quality 99.9 % Test CRC F39B18AA Copy CRC F39B18AA Cannot be verified as accurate (confidence 3) [4687CEE0], AccurateRip returned [FF4041F7] Copy OK

Track 12

Filename C:\Documents and Settings\Ben\Desktop\All Time Greatest Hits Volume I - 1964\12 - Henry Mancini - Two For the Road.wav

Pre-gap length 0:00:02.03

Peak level 90.8 % Track quality 100.0 % Test CRC 1ABA2733 Copy CRC 1ABA2733 Cannot be verified as accurate (confidence 3) [794096D1], AccurateRip returned [7A96D509] Copy OK

Track 13

Filename C:\Documents and Settings\Ben\Desktop\All Time Greatest Hits Volume I - 1964\13 - Henry Mancini - Theme From 'Z'.wav

Pre-gap length 0:00:01.33

Peak level 77.5 % Track quality 100.0 % Test CRC 833402F1 Copy CRC 833402F1 Cannot be verified as accurate (confidence 3) [076C377F], AccurateRip returned [474580C9] Copy OK

Track 14

Filename C:\Documents and Settings\Ben\Desktop\All Time Greatest Hits Volume I - 1964\14 - Henry Mancini - Theme From Love Story.wav

Pre-gap length 0:00:01.73

Peak level 96.4 % Track quality 99.9 % Test CRC CE89E7C5 Copy CRC CE89E7C5 Cannot be verified as accurate (confidence 3) [6E00A99C], AccurateRip returned [E38DF258] Copy OK

Track 15

Filename C:\Documents and Settings\Ben\Desktop\All Time Greatest Hits Volume I - 1964\15 - Henry Mancini - Peter Gunn.wav

Pre-gap length 0:00:02.43

Peak level 80.6 % Track quality 100.0 % Test CRC 65B725B8 Copy CRC 65B725B8 Cannot be verified as accurate (confidence 3) [4F18B1CB], AccurateRip returned [1EA7A5FE] Copy OK

No tracks could be verified as accurateYou may have a different pressing from the one(s) in the database

No errors occurred

End of status report


Трекер:  [ 08-Июл-2011 13:28 ]

  

Скачать .torrent

Размер .torrent файла 18 KB


Размер: 211 MB
Хэш (hash) релиза: 0f3ba9624de02817846650f0cbfc612ca9259186

Еще никто не оставлял запись к записи скачать торрент Henry Mancini - All Time Greatest Hits: Volume I - 1990, FLAC . Будь первым!

!Обратная связь