Скачать через торрент музыку VA - Wicker Park Одержимость - 2004, FLAC бесплатно без регистрации torrent

Если у вас наблюдаются проблемы со скриншотами, переходом по ссылками, скачиванием торрентов - проблемы в блокировщике рекламы AdBlock. #хорошегоДня!


Статистика раздачи
Размер:  424 MB   |    Зарегистрирован:  6 лет 5 месяцев   |    .torrent скачан:  70 раз   |   
Раздают:  1  
   
Загрузка...
 
Автор Сообщение

Galfimbul

avatar Galfimbul


Various Artists - Wicker Park / Одержимость OST

Жанр: Soundtrack
Год выпуска диска: 2004
Производитель диска: Lakeshore Records (US)
Аудио кодек: FLAC
Тип рипа: tracks+.cue
Битрейт аудио: lossless
Продолжительность: 70:17
Трэклист:
1. Stereophonics - Maybe Tomorrow
2. Lifehouse - Everybody Is Somebody
3. Death Cab for Cutie - A Movie Script Ending
4. Snow Patrol - How To Be Dead
5. Broken Social Scene - Lover's Spit
6. The Stills - Retour a vega
7. Mazzy Star - Flowers in December
8. The Legends - When the Day Is Done
9. The Shins - When I Goosestep
10. Jaime Wyatt - Light Switch
11. Mates of State - These Days
12. Plus/Minus - All I Do
13. Mum - We Have a Map of the Piano
14. The Postal Service - Against All Odds
15. Aqualung - Strange and Beautiful
16. Mogwai - I Know You Are But What Am I?
17. Johnette Napolitano & Danny Lohner - Scientist

Доп. информация

Эксклюзивно для торрентс.ру Замечательный саундтрек к "Одержимости", теперь и в lossless
EAC extraction logfile from 6. March 2007, 16:32 for CD
Various / Wicker Park Soundtrack Album

Used drive : PLEXTOR CD-R PREMIUM Adapter: 3 ID: 1
Read mode : Secure with NO C2, accurate stream, disable cache
Read offset correction : 30
Overread into Lead-In and Lead-Out : No

Used output format : G:\Program Files\FLAC\flac.exe (User Defined Encoder)
128 kBit/s
Additional command line options : -V -8 -T "artist=%a" -T "title=%t" -T "album=%g" -T "date=%y" -T "tracknumber=%n" -T "genre=%m" %s

Other options :
Fill up missing offset samples with silence : Yes
Delete leading and trailing silent blocks : No
Native Win32 interface for Win NT & 2000

Track 1
Filename D:\Torrents\Uploaded\01 - Maybe Tomorrow.wav

Peak level 100.0 %
Track quality 100.0 %
Test CRC 63F8B378
Copy CRC 63F8B378
Copy OK

Track 2
Filename D:\Torrents\Uploaded\02 - Everybody is Someone.wav

Peak level 93.8 %
Track quality 100.0 %
Test CRC 7A0E4B23
Copy CRC 7A0E4B23
Copy OK

Track 3
Filename D:\Torrents\Uploaded\03 - A Movie Script Ending.wav

Peak level 94.1 %
Track quality 99.9 %
Test CRC 6A860F4F
Copy CRC 6A860F4F
Copy OK

Track 4
Filename D:\Torrents\Uploaded\04 - How to be Dead.wav

Peak level 93.4 %
Track quality 100.0 %
Test CRC 44BE05CE
Copy CRC 44BE05CE
Copy OK

Track 5
Filename D:\Torrents\Uploaded\05 - Lover's Spit.wav

Peak level 96.4 %
Track quality 100.0 %
Test CRC AAB14B4E
Copy CRC AAB14B4E
Copy OK

Track 6
Filename D:\Torrents\Uploaded\06 - Retour a Vega.wav

Peak level 100.0 %
Track quality 100.0 %
Test CRC FCB924AD
Copy CRC FCB924AD
Copy OK

Track 7
Filename D:\Torrents\Uploaded\07 - Flowers in December.wav

Peak level 100.0 %
Track quality 100.0 %
Test CRC 072CB731
Copy CRC 072CB731
Copy OK

Track 8
Filename D:\Torrents\Uploaded\08 - When the Day is Done.wav

Peak level 100.0 %
Track quality 100.0 %
Test CRC 1181F8F8
Copy CRC 1181F8F8
Copy OK

Track 9
Filename D:\Torrents\Uploaded\09 - When I Goosestep.wav

Peak level 100.0 %
Track quality 100.0 %
Test CRC B94D827E
Copy CRC B94D827E
Copy OK

Track 10
Filename D:\Torrents\Uploaded\10 - Light Switch.wav

Peak level 100.0 %
Track quality 99.9 %
Test CRC AF233907
Copy CRC AF233907
Copy OK

Track 11
Filename D:\Torrents\Uploaded\11 - These Days.wav

Peak level 99.1 %
Track quality 100.0 %
Test CRC 60677179
Copy CRC 60677179
Copy OK

Track 12
Filename D:\Torrents\Uploaded\12 - All I Do.wav

Peak level 98.8 %
Track quality 100.0 %
Test CRC 4DBB532F
Copy CRC 4DBB532F
Copy OK

Track 13
Filename D:\Torrents\Uploaded\13 - We Have a Map of the Piano.wav

Peak level 100.0 %
Track quality 100.0 %
Test CRC 340B3F41
Copy CRC 340B3F41
Copy OK

Track 14
Filename D:\Torrents\Uploaded\14 - Against All Odds.wav

Peak level 100.0 %
Track quality 100.0 %
Test CRC 698A3D25
Copy CRC 698A3D25
Copy OK

Track 15
Filename D:\Torrents\Uploaded\15 - Strange and Beautiful.wav

Peak level 100.0 %
Track quality 100.0 %
Test CRC F2F3C3B5
Copy CRC F2F3C3B5
Copy OK

Track 16
Filename D:\Torrents\Uploaded\16 - I Know You Are But What Am I .wav

Peak level 100.0 %
Track quality 99.9 %
Test CRC FD38411B
Copy CRC FD38411B
Copy OK

Track 17
Filename D:\Torrents\Uploaded\17 - The Scientist.wav

Peak level 100.0 %
Track quality 99.9 %
Test CRC D92BA604
Copy CRC E60C26CD
Copy OK

No errors occured

End of status report


Трекер:  [ 08-Июл-2011 13:26 ]

  

Скачать .torrent

Размер .torrent файла 18 KB


Размер: 424 MB
Хэш (hash) релиза: a6db2f360c290d4287d70015a06a72cda93b7a51

Еще никто не оставлял запись к записи скачать торрент VA - Wicker Park Одержимость - 2004, FLAC . Будь первым!

!Обратная связь