Скачать через торрент музыку Классный мюзикл High School Musical бесплатно без регистрации torrent

Если у вас наблюдаются проблемы со скриншотами, переходом по ссылками, скачиванием торрентов - проблемы в блокировщике рекламы AdBlock. #хорошегоДня!


Статистика раздачи
Размер:  372 MB   |    Зарегистрирован:  6 лет 5 месяцев   |    .torrent скачан:  57 раз   |   
Раздают:  1  
   
Загрузка...
 
Автор Сообщение

Galfimbul

avatar Galfimbul


Классный мюзикл / High School Musical
2CD Special Edition
Various Artists


Жанр: Soundtrack | Год выпуска диска: 2006 | Производитель диска: Walt Disney
Аудио кодек: FLAC | Тип рипа: tracks+.cue | Битрейт аудио: lossless
Продолжительность указана отдельно для каждого диска
Источник: WhatCD

Продолжительность: 00:31:18

01. Troy & Gabriella - Start of Something New [03:16]
02. Troy - Get'cha Head In The Game [02:27]
03. Ryan & Sharpay - What I've Been Looking For [02:03]
04. Troy & Gabriella - What I've Been Looking For (Reprise) [01:19]
05. High School Musical Cast - Stick To The Status Quo [04:28]
06. Gabriella - When There Was Me and You [03:00]
07. Ryan & Sharpay - Bop to the Top [01:47]
08. Troy & Gabriella - Breaking Free [03:27]
09. High School Musical Cast - We're All in This Together [03:51]
10. Troy & Gabriella - I Can't Take My Eyes Off of You [02:51]
11. B5 - Get'cha Head In The Game [02:43]
 
Exact Audio Copy V0.99 prebeta 4 from 23. January 2008

EAC extraction logfile from 5. May 2009, 14:13

Various Artists / High School Musical - DISC 1

Used drive : HL-DT-STDVDRAM GSA-4084N Adapter: 0 ID: 0

Read mode : SecureUtilize accurate stream : YesDefeat audio cache : YesMake use of C2 pointers : No

Read offset correction : 667Overread into Lead-In and Lead-Out : NoFill up missing offset samples with silence : YesDelete leading and trailing silent blocks : NoNull samples used in CRC calculations : YesUsed interface : Native Win32 interface for Win NT & 2000Gap handling : Appended to previous track

Used output format : User Defined EncoderSelected bitrate : 128 kBit/sQuality : HighAdd ID3 tag : NoCommand line compressor : C:\Program Files (x86)\Exact Audio Copy\Flac\flac.exeAdditional command line options : -V -8 -T "artist=%a" -T "title=%t" -T "album=%g" -T "date=%y" -T "tracknumber=%n" -T "genre=%m" %s

TOC of the extracted CD

Track | Start | Length | Start sector | End sector --------------------------------------------------------- 1 | 0:00.00 | 3:16.58 | 0 | 14757 2 | 3:16.58 | 2:27.49 | 14758 | 25831 3 | 5:44.32 | 2:03.62 | 25832 | 35118 4 | 7:48.19 | 1:19.68 | 35119 | 41111 5 | 9:08.12 | 4:28.31 | 41112 | 61242 6 | 13:36.43 | 3:00.33 | 61243 | 74775 7 | 16:37.01 | 1:47.62 | 74776 | 82862 8 | 18:24.63 | 3:27.15 | 82863 | 98402 9 | 21:52.03 | 3:51.32 | 98403 | 115759 10 | 25:43.35 | 2:51.24 | 115760 | 128608 11 | 28:34.59 | 2:43.60 | 128609 | 140893 12 | 33:50.44 | 3:05.59 | 152294 | 166227

Track 1

Filename C:\EAC Rips\High School Musical - DISC 1 (2006)\01 - Troy & Gabriella - Start of Something New.wav

Pre-gap length 0:00:02.00

Peak level 99.9 % Track quality 100.0 % Test CRC A208C122 Copy CRC A208C122 Accurately ripped (confidence 35) [F9170B1F] Copy OK

Track 2

Filename C:\EAC Rips\High School Musical - DISC 1 (2006)\02 - Troy - Get'cha Head In The Game.wav

Peak level 99.9 % Track quality 100.0 % Test CRC E4065E74 Copy CRC E4065E74 Accurately ripped (confidence 35) [3E7D31FC] Copy OK

Track 3

Filename C:\EAC Rips\High School Musical - DISC 1 (2006)\03 - Ryan & Sharpay - What I've Been Looking For.wav

Peak level 99.9 % Track quality 100.0 % Test CRC 3A846CF8 Copy CRC 3A846CF8 Accurately ripped (confidence 35) [3AF4CA22] Copy OK

Track 4

Filename C:\EAC Rips\High School Musical - DISC 1 (2006)\04 - Troy & Gabriella - What I've Been Looking For (Reprise).wav

Peak level 95.7 % Track quality 100.0 % Test CRC 5A19D101 Copy CRC 5A19D101 Accurately ripped (confidence 35) [A666896A] Copy OK

Track 5

Filename C:\EAC Rips\High School Musical - DISC 1 (2006)\05 - High School Musical Cast - Stick To The Status Quo.wav

Peak level 99.9 % Track quality 100.0 % Test CRC EC38C555 Copy CRC EC38C555 Accurately ripped (confidence 35) [AE6147BE] Copy OK

Track 6

Filename C:\EAC Rips\High School Musical - DISC 1 (2006)\06 - Gabriella - When There Was Me and You.wav

Peak level 99.9 % Track quality 100.0 % Test CRC F60B8F1E Copy CRC F60B8F1E Accurately ripped (confidence 35) [861FE8F1] Copy OK

Track 7

Filename C:\EAC Rips\High School Musical - DISC 1 (2006)\07 - Ryan & Sharpay - Bop to the Top.wav

Peak level 99.9 % Track quality 100.0 % Test CRC 05FC0EE6 Copy CRC 05FC0EE6 Accurately ripped (confidence 35) [D5EBC6B2] Copy OK

Track 8

Filename C:\EAC Rips\High School Musical - DISC 1 (2006)\08 - Troy & Gabriella - Breaking Free.wav

Peak level 99.9 % Track quality 99.9 % Test CRC CE73D075 Copy CRC CE73D075 Accurately ripped (confidence 35) [853CD211] Copy OK

Track 9

Filename C:\EAC Rips\High School Musical - DISC 1 (2006)\09 - High School Musical Cast - We're All in This Together.wav

Peak level 99.9 % Track quality 99.9 % Test CRC 338626A3 Copy CRC 338626A3 Accurately ripped (confidence 35) [2440D05B] Copy OK

Track 10

Filename C:\EAC Rips\High School Musical - DISC 1 (2006)\10 - Troy & Gabriella - I Can't Take My Eyes Off of You.wav

Peak level 99.9 % Track quality 99.9 % Test CRC BCFC65F1 Copy CRC BCFC65F1 Accurately ripped (confidence 35) [3D614741] Copy OK

Track 11

Filename C:\EAC Rips\High School Musical - DISC 1 (2006)\11 - B5 - Get'cha Head In The Game.wav

Peak level 99.9 % Track quality 100.0 % Test CRC F1DE3BF3 Copy CRC F1DE3BF3 Accurately ripped (confidence 32) [CAE56D42] Copy OK

All tracks accurately ripped

No errors occurred

End of status report
 
REM GENRE PopREM DATE 2006REM DISCID 9808A80CREM COMMENT "ExactAudioCopy v0.99pb4"FILE "01 - Troy & Gabriella - Start of Something New.wav" WAVE TRACK 01 AUDIO INDEX 01 00:00:00FILE "02 - Troy - Get'cha Head In The Game.wav" WAVE TRACK 02 AUDIO INDEX 01 00:00:00FILE "03 - Ryan & Sharpay - What I've Been Looking For.wav" WAVE TRACK 03 AUDIO INDEX 01 00:00:00FILE "04 - Troy & Gabriella - What I've Been Looking For (Reprise).wav" WAVE TRACK 04 AUDIO INDEX 01 00:00:00FILE "05 - High School Musical Cast - Stick To The Status Quo.wav" WAVE TRACK 05 AUDIO INDEX 01 00:00:00FILE "06 - Gabriella - When There Was Me and You.wav" WAVE TRACK 06 AUDIO INDEX 01 00:00:00FILE "07 - Ryan & Sharpay - Bop to the Top.wav" WAVE TRACK 07 AUDIO INDEX 01 00:00:00FILE "08 - Troy & Gabriella - Breaking Free.wav" WAVE TRACK 08 AUDIO INDEX 01 00:00:00FILE "09 - High School Musical Cast - We're All in This Together.wav" WAVE TRACK 09 AUDIO INDEX 01 00:00:00FILE "10 - Troy & Gabriella - I Can't Take My Eyes Off of You.wav" WAVE TRACK 10 AUDIO INDEX 01 00:00:00FILE "11 - B5 - Get'cha Head In The Game.wav" WAVE TRACK 11 AUDIO INDEX 01 00:00:00 TRACK 12 MODEx/2xxx INDEX 00 02:43:60
 
REM GENRE PopREM DATE 2006REM DISCID 9808A80CREM COMMENT "ExactAudioCopy v0.99pb4"PERFORMER "Various Artists"TITLE "High School Musical - DISC 1"FILE "01 - Troy & Gabriella - Start of Something New.wav" WAVE TRACK 01 AUDIO TITLE "Start of Something New" PERFORMER "Troy & Gabriella" INDEX 01 00:00:00FILE "02 - Troy - Get'cha Head In The Game.wav" WAVE TRACK 02 AUDIO TITLE "Get'cha Head In The Game" PERFORMER "Troy" INDEX 01 00:00:00FILE "03 - Ryan & Sharpay - What I've Been Looking For.wav" WAVE TRACK 03 AUDIO TITLE "What I've Been Looking For" PERFORMER "Ryan & Sharpay" INDEX 01 00:00:00FILE "04 - Troy & Gabriella - What I've Been Looking For (Reprise).wav" WAVE TRACK 04 AUDIO TITLE "What I've Been Looking For (Reprise)" PERFORMER "Troy & Gabriella" INDEX 01 00:00:00FILE "05 - High School Musical Cast - Stick To The Status Quo.wav" WAVE TRACK 05 AUDIO TITLE "Stick To The Status Quo" PERFORMER "High School Musical Cast" INDEX 01 00:00:00FILE "06 - Gabriella - When There Was Me and You.wav" WAVE TRACK 06 AUDIO TITLE "When There Was Me and You" PERFORMER "Gabriella" INDEX 01 00:00:00FILE "07 - Ryan & Sharpay - Bop to the Top.wav" WAVE TRACK 07 AUDIO TITLE "Bop to the Top" PERFORMER "Ryan & Sharpay" INDEX 01 00:00:00FILE "08 - Troy & Gabriella - Breaking Free.wav" WAVE TRACK 08 AUDIO TITLE "Breaking Free" PERFORMER "Troy & Gabriella" INDEX 01 00:00:00FILE "09 - High School Musical Cast - We're All in This Together.wav" WAVE TRACK 09 AUDIO TITLE "We're All in This Together" PERFORMER "High School Musical Cast" INDEX 01 00:00:00FILE "10 - Troy & Gabriella - I Can't Take My Eyes Off of You.wav" WAVE TRACK 10 AUDIO TITLE "I Can't Take My Eyes Off of You" PERFORMER "Troy & Gabriella" INDEX 01 00:00:00FILE "11 - B5 - Get'cha Head In The Game.wav" WAVE TRACK 11 AUDIO TITLE "Get'cha Head In The Game" PERFORMER "B5" INDEX 01 00:00:00
Продолжительность: 00:24:49

01. Start of Something New (Karaoke) [03:31]
02. Get'cha Head In The Game (Karaoke) [02:37]
03. What I've Been Looking For (Karaoke) [02:13]
04. When There Was Me and You (Karaoke) [03:15]
05. Bop to the Top (Karaoke) [02:08]
06. Breaking Free (Karaoke) [03:42]
07. We're All In This Together (Karaoke) [04:13]
08. I Can't Take My Eyes Off of You (Karaoke) [03:07]
 
Exact Audio Copy V0.99 prebeta 4 from 23. January 2008

EAC extraction logfile from 5. May 2009, 14:55

Instrumental / High School Musical - DISC 2

Used drive : HL-DT-STDVDRAM GSA-4084N Adapter: 0 ID: 0

Read mode : SecureUtilize accurate stream : YesDefeat audio cache : YesMake use of C2 pointers : No

Read offset correction : 667Overread into Lead-In and Lead-Out : NoFill up missing offset samples with silence : YesDelete leading and trailing silent blocks : NoNull samples used in CRC calculations : YesUsed interface : Native Win32 interface for Win NT & 2000Gap handling : Appended to previous track

Used output format : User Defined EncoderSelected bitrate : 128 kBit/sQuality : HighAdd ID3 tag : NoCommand line compressor : C:\Program Files (x86)\Exact Audio Copy\Flac\flac.exeAdditional command line options : -V -8 -T "artist=%a" -T "title=%t" -T "album=%g" -T "date=%y" -T "tracknumber=%n" -T "genre=%m" %s

TOC of the extracted CD

Track | Start | Length | Start sector | End sector --------------------------------------------------------- 1 | 0:00.00 | 3:31.12 | 0 | 15836 2 | 3:31.12 | 2:37.27 | 15837 | 27638 3 | 6:08.39 | 2:13.11 | 27639 | 37624 4 | 8:21.50 | 3:15.57 | 37625 | 52306 5 | 11:37.32 | 2:08.56 | 52307 | 61962 6 | 13:46.13 | 3:42.11 | 61963 | 78623 7 | 17:28.24 | 4:13.36 | 78624 | 97634 8 | 21:41.60 | 3:07.70 | 97635 | 111729

Track 1

Filename C:\EAC Rips\Instrumental - 2006 - High School Musical - DISC 2 [FLAC]\01 - Start of Something New (Karaoke).wav

Pre-gap length 0:00:02.00

Peak level 98.8 % Track quality 99.9 % Test CRC B0D56F50 Copy CRC B0D56F50 Accurately ripped (confidence 20) [58C4B0FE] Copy OK

Track 2

Filename C:\EAC Rips\Instrumental - 2006 - High School Musical - DISC 2 [FLAC]\02 - Get'cha Head In The Game (Karaoke).wav

Peak level 99.6 % Track quality 100.0 % Test CRC 96ECA83F Copy CRC 96ECA83F Accurately ripped (confidence 20) [72BE5E96] Copy OK

Track 3

Filename C:\EAC Rips\Instrumental - 2006 - High School Musical - DISC 2 [FLAC]\03 - What I've Been Looking For (Karaoke).wav

Peak level 97.6 % Track quality 99.9 % Test CRC CFEC4EB1 Copy CRC CFEC4EB1 Accurately ripped (confidence 19) [964D84D7] Copy OK

Track 4

Filename C:\EAC Rips\Instrumental - 2006 - High School Musical - DISC 2 [FLAC]\04 - When There Was Me and You (Karaoke).wav

Peak level 97.6 % Track quality 100.0 % Test CRC DFD5724D Copy CRC DFD5724D Accurately ripped (confidence 20) [F5DCEBE4] Copy OK

Track 5

Filename C:\EAC Rips\Instrumental - 2006 - High School Musical - DISC 2 [FLAC]\05 - Bop to the Top (Karaoke).wav

Peak level 97.6 % Track quality 100.0 % Test CRC 096CB1AB Copy CRC 096CB1AB Accurately ripped (confidence 20) [24CC217E] Copy OK

Track 6

Filename C:\EAC Rips\Instrumental - 2006 - High School Musical - DISC 2 [FLAC]\06 - Breaking Free (Karaoke).wav

Peak level 100.0 % Track quality 99.9 % Test CRC 323FF998 Copy CRC 323FF998 Accurately ripped (confidence 20) [AF9007D7] Copy OK

Track 7

Filename C:\EAC Rips\Instrumental - 2006 - High School Musical - DISC 2 [FLAC]\07 - We're All In This Together (Karaoke).wav

Peak level 97.6 % Track quality 100.0 % Test CRC 0B712C3D Copy CRC 0B712C3D Accurately ripped (confidence 19) [259D284D] Copy OK

Track 8

Filename C:\EAC Rips\Instrumental - 2006 - High School Musical - DISC 2 [FLAC]\08 - I Can't Take My Eyes Off of You (Karaoke).wav

Peak level 97.6 % Track quality 100.0 % Test CRC 7899C265 Copy CRC 7899C265 Accurately ripped (confidence 20) [880B79F3] Copy OK

All tracks accurately ripped

No errors occurred

End of status report
 
REM GENRE MusicalsREM DATE 2006REM DISCID 5105D108REM COMMENT "ExactAudioCopy v0.99pb4"FILE "01 - Start of Something New (Karaoke).wav" WAVE TRACK 01 AUDIO INDEX 01 00:00:00FILE "02 - Get'cha Head In The Game (Karaoke).wav" WAVE TRACK 02 AUDIO INDEX 01 00:00:00FILE "03 - What I've Been Looking For (Karaoke).wav" WAVE TRACK 03 AUDIO INDEX 01 00:00:00FILE "04 - When There Was Me and You (Karaoke).wav" WAVE TRACK 04 AUDIO INDEX 01 00:00:00FILE "05 - Bop to the Top (Karaoke).wav" WAVE TRACK 05 AUDIO INDEX 01 00:00:00FILE "06 - Breaking Free (Karaoke).wav" WAVE TRACK 06 AUDIO INDEX 01 00:00:00FILE "07 - We're All In This Together (Karaoke).wav" WAVE TRACK 07 AUDIO INDEX 01 00:00:00FILE "08 - I Can't Take My Eyes Off of You (Karaoke).wav" WAVE TRACK 08 AUDIO INDEX 01 00:00:00
 
REM GENRE MusicalsREM DATE 2006REM DISCID 5105D108REM COMMENT "ExactAudioCopy v0.99pb4"PERFORMER "Instrumental"TITLE "High School Musical - DISC 2"FILE "01 - Start of Something New (Karaoke).wav" WAVE TRACK 01 AUDIO TITLE "Start of Something New (Karaoke)" PERFORMER "Instrumental" INDEX 01 00:00:00FILE "02 - Get'cha Head In The Game (Karaoke).wav" WAVE TRACK 02 AUDIO TITLE "Get'cha Head In The Game (Karaoke)" PERFORMER "Instrumental" INDEX 01 00:00:00FILE "03 - What I've Been Looking For (Karaoke).wav" WAVE TRACK 03 AUDIO TITLE "What I've Been Looking For (Karaoke)" PERFORMER "Instrumental" INDEX 01 00:00:00FILE "04 - When There Was Me and You (Karaoke).wav" WAVE TRACK 04 AUDIO TITLE "When There Was Me and You (Karaoke)" PERFORMER "Instrumental" INDEX 01 00:00:00FILE "05 - Bop to the Top (Karaoke).wav" WAVE TRACK 05 AUDIO TITLE "Bop to the Top (Karaoke)" PERFORMER "Instrumental" INDEX 01 00:00:00FILE "06 - Breaking Free (Karaoke).wav" WAVE TRACK 06 AUDIO TITLE "Breaking Free (Karaoke)" PERFORMER "Instrumental" INDEX 01 00:00:00FILE "07 - We're All In This Together (Karaoke).wav" WAVE TRACK 07 AUDIO TITLE "We're All In This Together (Karaoke)" PERFORMER "Instrumental" INDEX 01 00:00:00FILE "08 - I Can't Take My Eyes Off of You (Karaoke).wav" WAVE TRACK 08 AUDIO TITLE "I Can't Take My Eyes Off of You (Karaoke)" PERFORMER "Instrumental" INDEX 01 00:00:00



Трекер:  [ 08-Июл-2011 13:26 ]

  

Скачать .torrent

Размер .torrent файла 31 KB


Размер: 372 MB
Хэш (hash) релиза: 1166cfd5ab14c0d902dbaad5af3c0881a9f8c5ca

Торренты, похожие на Классный мюзикл High School Musical скачать торрент

Форум Название Автор Размер S L Добавлен
Саундтреки к фильмам и мультфильмам (lossless) ·· (Soundtrack / Live) Классный мюзикл / High School Musical: The Concert (VA) - 2007, FLAC (tracks+.cue), lossless Galfimbul 414539086395 MB 0 0 1292268860

22:34

13-Дек-10

Саундтреки к фильмам и мультфильмам (lossless) ·· (Soundtrack) Классный мюзикл 2 / High School Musical 2: Non-Stop Dance Party (Jason Nevins Remixes) (VA) - 2007, FLAC (tracks+.cue), lossless Galfimbul 366236804349 MB 0 0 1292268865

22:34

13-Дек-10

Саундтреки к фильмам и мультфильмам (lossless) ·· (Soundtrack) High School Musical / Классный мюзикл - 2006, FLAC (image+.cue), lossless Galfimbul 275531564263 MB 0 0 1292268745

22:32

13-Дек-10

Саундтреки к фильмам и мультфильмам (lossless) ·· (Soundtrack) Классный мюзикл 2: Каникулы / High School Musical 2 - 2007, FLAC (tracks+.cue), lossless Galfimbul 285933294273 MB 0 0 1292268718

22:31

13-Дек-10

Саундтреки к фильмам и мультфильмам (lossless) ·· (Soundtrack) Классный мюзикл 3: Выпускной год / High School Musical 3: Senior Year - 2008, FLAC (tracks+.cue), lossless Galfimbul 389500893371 MB 0 0 1292268645

22:30

13-Дек-10

Саундтреки к фильмам и мультфильмам (mp3) ·· (Soundtrack) High School Musical 3: Senior Year / Классный мюзикл 3: Выпускной год - 2008, MP3 (tracks), 320 kbps Galfimbul 123107260117 MB 0 0 1292265457

21:37

13-Дек-10

Саундтреки к фильмам и мультфильмам (mp3) ·· (Soundtrack) High School Musical 1,2,3 Russian Cast / Классный мюзикл 1,2,3 Русская версия - 2008, MP3, 192-320 kbps AqvaGen 191152306182 MB 0 0 1292265279

21:34

13-Дек-10

Еще никто не оставлял запись к записи скачать торрент Классный мюзикл High School Musical . Будь первым!

!Обратная связь