Скачать через торрент музыку Баффи: Истребительница вампиров + Ангел Buffy: The Vampire Slayer бесплатно без регистрации torrent

Если у вас наблюдаются проблемы со скриншотами, переходом по ссылками, скачиванием торрентов - проблемы в блокировщике рекламы AdBlock. #хорошегоДня!


Статистика раздачи
Размер:  2.11 GB   |    Зарегистрирован:  6 лет 11 месяцев   |    .torrent скачан:  64 раза   |   
Раздают:  1  
   
Загрузка...
 
Автор Сообщение

AqvaGen



Аудио кодек: FLAC
Тип рипа: tracks+.cue
Битрейт аудио: lossless


Жанр: Soundtrack
Год выпуска диска: 1999
Производитель диска: США
Продолжительность: 1:05:19
Доп. Информация: Источник рипа форум ffshrine.org.
Описание:
Buffy the Vampire Slayer - The Album это саундтрек, включающий в себя музыку из телесериала Buffy the Vampire Slayer.
The album состоит в частности из треков малоизвестных артистов. Так же есть пара треков из оригинального Score. Несмотря на то что альбом был выпущен в 1999 году, он содержит в себе музыку из первых 4х сезонов Баффи.
Следом за ним в 2003 году вышел, Buffy the Vampire Slayer: Radio Sunnydale - Music from the TV Series.
01 - Nerf Herder - Buffy the Vampire Slayer Theme
02 - Guided by Voices - Teenage FBI
03 - Garbage - Temptation Waits
04 - Velvet Chain - Strong
05 - Hepburn - I Quit
06 - Furslide - Over My Head
07 - Bif Naked - Lucky
08 - Black Lab - Keep Myself Awake
09 - K's Choice - Virgin State of Mind
10 - Superfine - Already Met You
11 - Face To Face - The Devil You Know (God Is a Man)
12 - Kim Ferron - Nothing but You
13 - Alison Krauss & Union Station - It Doesn't Matter
14 - The Sundays - Wild Horses
15 - Four Star Mary - Pain (Slayer Mix)
16 - Splendid - Charge
17 - Rasputina - Transylvanian Concubine
18 - Christophe Beck - Close Your Eyes (Buffy,Angel Love Theme)
 
Exact Audio Copy V0.99 prebeta 5 from 4. May 2009

EAC extraction logfile from 13. May 2009, 21:12

Various / Buffy the Vampire Slayer: The Album

Used drive : MATSHITADVD-RAM UJ870QJ Adapter: 1 ID: 0

Read mode : SecureUtilize accurate stream : YesDefeat audio cache : YesMake use of C2 pointers : No

Read offset correction : 102Overread into Lead-In and Lead-Out : NoFill up missing offset samples with silence : YesDelete leading and trailing silent blocks : NoNull samples used in CRC calculations : YesUsed interface : Native Win32 interface for Win NT & 2000Gap handling : Appended to previous track

Used output format : User Defined EncoderSelected bitrate : 128 kBit/sQuality : HighAdd ID3 tag : NoCommand line compressor : F:\Program Files\Exact Audio Copy 0.99pb5\Flac\flac.exeAdditional command line options : -V -8 -T "artist=%a" -T "title=%t" -T "album=%g" -T "date=%y" -T "tracknumber=%n" -T "genre=%m" %s

TOC of the extracted CD

Track | Start | Length | Start sector | End sector --------------------------------------------------------- 1 | 0:00.00 | 1:04.42 | 0 | 4841 2 | 1:04.42 | 3:19.40 | 4842 | 19806 3 | 4:24.07 | 4:39.05 | 19807 | 40736 4 | 9:03.12 | 4:30.55 | 40737 | 61041 5 | 13:33.67 | 3:56.05 | 61042 | 78746 6 | 17:29.72 | 3:04.48 | 78747 | 92594 7 | 20:34.45 | 4:00.07 | 92595 | 110601 8 | 24:34.52 | 4:32.58 | 110602 | 131059 9 | 29:07.35 | 3:12.65 | 131060 | 145524 10 | 32:20.25 | 3:36.27 | 145525 | 161751 11 | 35:56.52 | 3:37.73 | 161752 | 178099 12 | 39:34.50 | 3:58.40 | 178100 | 195989 13 | 43:33.15 | 3:54.07 | 195990 | 213546 14 | 47:27.22 | 4:46.05 | 213547 | 235001 15 | 52:13.27 | 3:40.05 | 235002 | 251506 16 | 55:53.32 | 3:49.58 | 251507 | 268739 17 | 59:43.15 | 2:48.32 | 268740 | 281371 18 | 62:31.47 | 2:47.03 | 281372 | 293899

Track 1

Filename C:\EACRips\Buffy the Vampire Slayer- The Album (1999)\01 - Nerf Herder - Buffy the Vampire Slayer Theme.wav

Pre-gap length 0:00:02.00

Peak level 100.0 % Track quality 100.0 % Test CRC 26D3DD47 Copy CRC 26D3DD47 Accurately ripped (confidence 12) [E6BDDBC6] Copy OK

Track 2

Filename C:\EACRips\Buffy the Vampire Slayer- The Album (1999)\02 - Guided by Voices - Teenage FBI.wav

Pre-gap length 0:00:00.20

Peak level 99.0 % Track quality 100.0 % Test CRC 19B637E4 Copy CRC 19B637E4 Accurately ripped (confidence 12) [E482914B] Copy OK

Track 3

Filename C:\EACRips\Buffy the Vampire Slayer- The Album (1999)\03 - Garbage - Temptation Waits.wav

Pre-gap length 0:00:00.66

Peak level 99.3 % Track quality 100.0 % Test CRC 87F1A50F Copy CRC 87F1A50F Accurately ripped (confidence 12) [9E87A5EA] Copy OK

Track 4

Filename C:\EACRips\Buffy the Vampire Slayer- The Album (1999)\04 - Velvet Chain - Strong.wav

Pre-gap length 0:00:01.80

Peak level 99.1 % Track quality 100.0 % Test CRC 29E593FC Copy CRC 29E593FC Accurately ripped (confidence 12) [962A94DB] Copy OK

Track 5

Filename C:\EACRips\Buffy the Vampire Slayer- The Album (1999)\05 - Hepburn - I Quit.wav

Pre-gap length 0:00:02.26

Peak level 98.7 % Track quality 100.0 % Test CRC 91BD9631 Copy CRC 91BD9631 Accurately ripped (confidence 12) [E273F25C] Copy OK

Track 6

Filename C:\EACRips\Buffy the Vampire Slayer- The Album (1999)\06 - Furslide - Over My Head.wav

Pre-gap length 0:00:02.53

Peak level 99.3 % Track quality 99.9 % Test CRC 3509F3EE Copy CRC 3509F3EE Accurately ripped (confidence 12) [B34EE554] Copy OK

Track 7

Filename C:\EACRips\Buffy the Vampire Slayer- The Album (1999)\07 - Bif Naked - Lucky.wav

Pre-gap length 0:00:01.80

Peak level 99.4 % Track quality 99.9 % Test CRC 728D8AC5 Copy CRC 728D8AC5 Accurately ripped (confidence 12) [CB3E7C49] Copy OK

Track 8

Filename C:\EACRips\Buffy the Vampire Slayer- The Album (1999)\08 - Black Lab - Keep Myself Awake.wav

Pre-gap length 0:00:02.40

Peak level 99.5 % Track quality 100.0 % Test CRC 846C22A7 Copy CRC 846C22A7 Accurately ripped (confidence 12) [B6C731BE] Copy OK

Track 9

Filename C:\EACRips\Buffy the Vampire Slayer- The Album (1999)\09 - K's Choice - Virgin State of Mind.wav

Pre-gap length 0:00:01.90

Peak level 98.8 % Track quality 100.0 % Test CRC 16027EB7 Copy CRC 16027EB7 Accurately ripped (confidence 12) [7AD29B3F] Copy OK

Track 10

Filename C:\EACRips\Buffy the Vampire Slayer- The Album (1999)\10 - Superfine - Already Met You.wav

Pre-gap length 0:00:01.86

Peak level 98.9 % Track quality 100.0 % Test CRC A9425515 Copy CRC A9425515 Accurately ripped (confidence 12) [04321296] Copy OK

Track 11

Filename C:\EACRips\Buffy the Vampire Slayer- The Album (1999)\11 - Face To Face - The Devil You Know (God Is a Man).wav

Pre-gap length 0:00:02.80

Peak level 94.5 % Track quality 100.0 % Test CRC 6E31E1AB Copy CRC 6E31E1AB Accurately ripped (confidence 12) [F45BC00D] Copy OK

Track 12

Filename C:\EACRips\Buffy the Vampire Slayer- The Album (1999)\12 - Kim Ferron - Nothing but You.wav

Pre-gap length 0:00:01.60

Peak level 98.9 % Track quality 100.0 % Test CRC 22A29454 Copy CRC 22A29454 Accurately ripped (confidence 12) [8AA862D5] Copy OK

Track 13

Filename C:\EACRips\Buffy the Vampire Slayer- The Album (1999)\13 - Alison Krauss & Union Station - It Doesn't Matter.wav

Pre-gap length 0:00:02.26

Peak level 100.0 % Track quality 99.9 % Test CRC 4A41A70F Copy CRC 4A41A70F Accurately ripped (confidence 12) [0AD80530] Copy OK

Track 14

Filename C:\EACRips\Buffy the Vampire Slayer- The Album (1999)\14 - The Sundays - Wild Horses.wav

Pre-gap length 0:00:02.20

Peak level 97.9 % Track quality 100.0 % Test CRC 4E92358C Copy CRC 4E92358C Accurately ripped (confidence 12) [A497A4DA] Copy OK

Track 15

Filename C:\EACRips\Buffy the Vampire Slayer- The Album (1999)\15 - Four Star Mary - Pain (Slayer Mix).wav

Pre-gap length 0:00:01.29

Peak level 99.2 % Track quality 100.0 % Test CRC D586134E Copy CRC D586134E Accurately ripped (confidence 12) [93557F18] Copy OK

Track 16

Filename C:\EACRips\Buffy the Vampire Slayer- The Album (1999)\16 - Splendid - Charge.wav

Pre-gap length 0:00:02.93

Peak level 100.0 % Track quality 99.9 % Test CRC 0744BF8A Copy CRC 0744BF8A Accurately ripped (confidence 12) [47B03B10] Copy OK

Track 17

Filename C:\EACRips\Buffy the Vampire Slayer- The Album (1999)\17 - Rasputina - Transylvanian Concubine.wav

Pre-gap length 0:00:01.04

Peak level 99.9 % Track quality 100.0 % Test CRC D4828EA4 Copy CRC D4828EA4 Accurately ripped (confidence 12) [9F1136E9] Copy OK

Track 18

Filename C:\EACRips\Buffy the Vampire Slayer- The Album (1999)\18 - Christophe Beck - Close Your Eyes (Buffy,Angel Love Theme).wav

Pre-gap length 0:00:00.93

Peak level 98.6 % Track quality 99.9 % Test CRC A1D3916E Copy CRC A1D3916E Accurately ripped (confidence 12) [CC11C3D3] Copy OK

All tracks accurately ripped

No errors occurred

End of status report
 
REM GENRE SoundtrackREM DATE 1999REM DISCID 0D0F4E12REM COMMENT "ExactAudioCopy v0.99pb5"CATALOG 5099749663329PERFORMER "Various"TITLE "Buffy the Vampire Slayer: The Album"FILE "01 - Nerf Herder - Buffy the Vampire Slayer Theme.wav" WAVE TRACK 01 AUDIO TITLE "Buffy the Vampire Slayer Theme" PERFORMER "Nerf Herder" ISRC USTV19900074 INDEX 01 00:00:00 TRACK 02 AUDIO TITLE "Teenage FBI" PERFORMER "Guided by Voices" ISRC USTV19900075 INDEX 00 01:04:27FILE "02 - Guided by Voices - Teenage FBI.wav" WAVE INDEX 01 00:00:00 TRACK 03 AUDIO TITLE "Temptation Waits" PERFORMER "Garbage" ISRC USAL19800022 INDEX 00 03:18:65FILE "03 - Garbage - Temptation Waits.wav" WAVE INDEX 01 00:00:00 TRACK 04 AUDIO TITLE "Strong" PERFORMER "Velvet Chain" ISRC USTV19900076 INDEX 00 04:37:20FILE "04 - Velvet Chain - Strong.wav" WAVE INDEX 01 00:00:00 TRACK 05 AUDIO TITLE "I Quit" PERFORMER "Hepburn" ISRC GBBBN9902013 INDEX 00 04:28:35FILE "05 - Hepburn - I Quit.wav" WAVE INDEX 01 00:00:00 TRACK 06 AUDIO TITLE "Over My Head" PERFORMER "Furslide" ISRC USV129800143 INDEX 00 03:53:40FILE "06 - Furslide - Over My Head.wav" WAVE INDEX 01 00:00:00 TRACK 07 AUDIO TITLE "Lucky" PERFORMER "Bif Naked" ISRC USTV19900078 INDEX 00 03:02:63FILE "07 - Bif Naked - Lucky.wav" WAVE INDEX 01 00:00:00 TRACK 08 AUDIO TITLE "Keep Myself Awake" PERFORMER "Black Lab" ISRC USTV19900079 INDEX 00 03:57:52FILE "08 - Black Lab - Keep Myself Awake.wav" WAVE INDEX 01 00:00:00 TRACK 09 AUDIO TITLE "Virgin State of Mind" PERFORMER "K's Choice" INDEX 00 04:30:65FILE "09 - K's Choice - Virgin State of Mind.wav" WAVE INDEX 01 00:00:00 TRACK 10 AUDIO TITLE "Already Met You" PERFORMER "Superfine" ISRC USTV19900081 INDEX 00 03:11:00FILE "10 - Superfine - Already Met You.wav" WAVE INDEX 01 00:00:00 TRACK 11 AUDIO TITLE "The Devil You Know (God Is a Man)" PERFORMER "Face To Face" ISRC USTV19900082 INDEX 00 03:33:42FILE "11 - Face To Face - The Devil You Know (God Is a Man).wav" WAVE INDEX 01 00:00:00 TRACK 12 AUDIO TITLE "Nothing but You" PERFORMER "Kim Ferron" ISRC USTV19900083 INDEX 00 03:36:28FILE "12 - Kim Ferron - Nothing but You.wav" WAVE INDEX 01 00:00:00 TRACK 13 AUDIO TITLE "It Doesn't Matter" PERFORMER "Alison Krauss & Union Station" ISRC USRO29736507 INDEX 00 03:56:20FILE "13 - Alison Krauss & Union Station - It Doesn't Matter.wav" WAVE INDEX 01 00:00:00 TRACK 14 AUDIO TITLE "Wild Horses" PERFORMER "The Sundays" ISRC USTV19900084 INDEX 00 03:51:67FILE "14 - The Sundays - Wild Horses.wav" WAVE INDEX 01 00:00:00 TRACK 15 AUDIO TITLE "Pain (Slayer Mix)" PERFORMER "Four Star Mary" ISRC USTV19900085 INDEX 00 04:44:58FILE "15 - Four Star Mary - Pain (Slayer Mix).wav" WAVE INDEX 01 00:00:00 TRACK 16 AUDIO TITLE "Charge" PERFORMER "Splendid" ISRC USTV19900086 INDEX 00 03:37:10FILE "16 - Splendid - Charge.wav" WAVE INDEX 01 00:00:00 TRACK 17 AUDIO TITLE "Transylvanian Concubine" PERFORMER "Rasputina" ISRC USSM19600957 INDEX 00 03:48:55FILE "17 - Rasputina - Transylvanian Concubine.wav" WAVE INDEX 01 00:00:00 TRACK 18 AUDIO TITLE "Close Your Eyes (Buffy/Angel Love Theme)" PERFORMER "Christophe Beck" ISRC USTV19900088 INDEX 00 02:47:37FILE "18 - Christophe Beck - Close Your Eyes (Buffy,Angel Love Theme).wav" WAVE INDEX 01 00:00:00

Radio Sunnydale (UK & Latin America version)

Жанр: Soundtrack
Год выпуска диска: 2003
Производитель диска: Великобритания
Продолжительность: 1:14:20
Доп. Информация: Источник рипа what.cd. Оригинальный релизер chocovla
Описание:
Buffy the Vampire Slayer - Radio Sunnydale - второй саундтрек к телесериалу Баффи Исстребительница Вампиров.
Radio Sunnydale последовал традиции первого саундтрека, правда он включает в себя песни более известных исполнителей. Альбом сосредоточен на пятом, шестом и седьмом сезонах Баффи. Он был выпущен по окончанию шоу, осенью 2003.
Наверное самым значительным аспектом альбома является то что он был выпущен в двух абсолютно разных версиях, один для США, а другой для Великобритании. Версия для США включает в себя всего лишь 12 треков, когда в версии для Великобритании убрали три трека и добавили 12 других, в общем счете получился 21 трек. Обложки так же были разными, Великобританская версия более светлая . Не удивительно, что версия для Великобритании сосредоточена на том, чтобы быть главной версией. Она была выпущена в Австралии и Латинской Америке.
01. The Breeders - Buffy Main Title Theme
02. The Dandy Warhols - Bohemian Like You
03. Nikka Costa - Everybody Got Their Something
04. Christophe Beck - Dead Guys With Bombs
05. devics - Key
06. Lunatic Calm - Sound of the Revolution
07. Dashboard Prophets - Ballad for Dead Friends
08. Angie Hart - Blue
09. Aimee Mann - Pavlovs Bell
10. Alison Krauss - That Kind of Love
11. Aberdeen - Sink or Float
12. Patty Medina - Still Life
13. Laika - Black Cat Bone
14. Man of the Year - Just as Nice
15. Melanie Doane - I Can't Take My Eyes Off You
16. Fonda - The Sun Keeps Shining On Me
17. Halo Friendlies - Run Away
18. Emiliana Torrini - Summerbreeze
19. Cibo Matto - Sugar Water
20. Rob Duncan - The Final Fight (Original Score)
21.Nerf Herder - Buffy the Vampire Slayer Theme
 
Exact Audio Copy V0.99 prebeta 5 from 4. May 2009

EAC extraction logfile from 29. March 2010, 21:03

Various Artists / Buffy the Vampire Slayer: Radio Sunnydale

Used drive : Optiarc DVD RW AD-7240S Adapter: 4 ID: 0

Read mode : SecureUtilize accurate stream : YesDefeat audio cache : YesMake use of C2 pointers : No

Read offset correction : 48Overread into Lead-In and Lead-Out : NoFill up missing offset samples with silence : YesDelete leading and trailing silent blocks : NoNull samples used in CRC calculations : YesUsed interface : Native Win32 interface for Win NT & 2000Gap handling : Appended to previous track

Used output format : User Defined EncoderSelected bitrate : 320 kBit/sQuality : HighAdd ID3 tag : NoCommand line compressor : D:\Program Files (x86)\Exact Audio Copy\Flac\flac.exeAdditional command line options : -V -8 -T "artist=%a" -T "title=%t" -T "album=%g" -T "date=%y" -T "tracknumber=%n" -T "genre=%m" %s

TOC of the extracted CD

Track | Start | Length | Start sector | End sector --------------------------------------------------------- 1 | 0:00.00 | 1:12.27 | 0 | 5426 2 | 1:12.27 | 3:32.50 | 5427 | 21376 3 | 4:45.02 | 4:19.60 | 21377 | 40861 4 | 9:04.62 | 2:54.65 | 40862 | 53976 5 | 11:59.52 | 3:28.50 | 53977 | 69626 6 | 15:28.27 | 4:03.05 | 69627 | 87856 7 | 19:31.32 | 4:13.45 | 87857 | 106876 8 | 23:45.02 | 2:48.63 | 106877 | 119539 9 | 26:33.65 | 4:26.07 | 119540 | 139496 10 | 30:59.72 | 3:43.55 | 139497 | 156276 11 | 34:43.52 | 3:26.43 | 156277 | 171769 12 | 38:10.20 | 4:27.20 | 171770 | 191814 13 | 42:37.40 | 4:24.47 | 191815 | 211661 14 | 47:02.12 | 2:59.23 | 211662 | 225109 15 | 50:01.35 | 3:55.12 | 225110 | 242746 16 | 53:56.47 | 4:06.65 | 242747 | 261261 17 | 58:03.37 | 3:01.48 | 261262 | 274884 18 | 61:05.10 | 3:40.10 | 274885 | 291394 19 | 64:45.20 | 4:29.52 | 291395 | 311621 20 | 69:14.72 | 4:02.03 | 311622 | 329774 21 | 73:17.00 | 1:03.35 | 329775 | 334534

Track 1

Filename D:\backup\EACRips\Buffy the Vampire Slayer- Radio Sunnydale (2003)\01 - The Breeders - Buffy Main Title Theme.wav

Pre-gap length 0:00:02.00

Peak level 74.5 % Track quality 99.8 % Test CRC EF5E4145 Copy CRC EF5E4145 Accurately ripped (confidence 16) [7C6A12D8] Copy OK

Track 2

Filename D:\backup\EACRips\Buffy the Vampire Slayer- Radio Sunnydale (2003)\02 - The Dandy Warhols - Bohemian Like You.wav

Pre-gap length 0:00:00.02

Peak level 88.6 % Track quality 100.0 % Test CRC 34E3F07F Copy CRC 34E3F07F Accurately ripped (confidence 17) [57F665FC] Copy OK

Track 3

Filename D:\backup\EACRips\Buffy the Vampire Slayer- Radio Sunnydale (2003)\03 - Nikka Costa - Everybody Got Their Something.wav

Pre-gap length 0:00:00.13

Peak level 98.4 % Track quality 100.0 % Test CRC D3F3FE45 Copy CRC D3F3FE45 Accurately ripped (confidence 16) [FA1A90CB] Copy OK

Track 4

Filename D:\backup\EACRips\Buffy the Vampire Slayer- Radio Sunnydale (2003)\04 - Christophe Beck - Dead Guys with Bombs.wav

Pre-gap length 0:00:00.02

Peak level 98.3 % Track quality 100.0 % Test CRC 02063166 Copy CRC 02063166 Accurately ripped (confidence 16) [145E7630] Copy OK

Track 5

Filename D:\backup\EACRips\Buffy the Vampire Slayer- Radio Sunnydale (2003)\05 - Devics - Key.wav

Pre-gap length 0:00:00.02

Peak level 78.0 % Track quality 100.0 % Test CRC B4F2827E Copy CRC B4F2827E Accurately ripped (confidence 16) [CB69551D] Copy OK

Track 6

Filename D:\backup\EACRips\Buffy the Vampire Slayer- Radio Sunnydale (2003)\06 - Lunatic Calm - Sound of the Revolution.wav

Pre-gap length 0:00:00.02

Peak level 78.9 % Track quality 99.9 % Test CRC 8E0990DA Copy CRC 8E0990DA Accurately ripped (confidence 16) [674A1D40] Copy OK

Track 7

Filename D:\backup\EACRips\Buffy the Vampire Slayer- Radio Sunnydale (2003)\07 - Dashboard Prophets - Ballad for Dead Friends.wav

Pre-gap length 0:00:00.02

Peak level 78.9 % Track quality 100.0 % Test CRC 34A7ADC8 Copy CRC 34A7ADC8 Accurately ripped (confidence 16) [A24A213C] Copy OK

Track 8

Filename D:\backup\EACRips\Buffy the Vampire Slayer- Radio Sunnydale (2003)\08 - Angie Hart - Blue.wav

Pre-gap length 0:00:00.02

Peak level 70.1 % Track quality 100.0 % Test CRC 338D72AA Copy CRC 338D72AA Accurately ripped (confidence 16) [C6156F19] Copy OK

Track 9

Filename D:\backup\EACRips\Buffy the Vampire Slayer- Radio Sunnydale (2003)\09 - Aimee Mann - Pavlovs Bell.wav

Pre-gap length 0:00:00.04

Peak level 83.6 % Track quality 100.0 % Test CRC 876CE6A6 Copy CRC 876CE6A6 Accurately ripped (confidence 16) [D89A5606] Copy OK

Track 10

Filename D:\backup\EACRips\Buffy the Vampire Slayer- Radio Sunnydale (2003)\10 - Alison Krauss - That Kind of Love.wav

Pre-gap length 0:00:00.02

Peak level 93.8 % Track quality 100.0 % Test CRC 6AD70EDF Copy CRC 6AD70EDF Accurately ripped (confidence 16) [3E820209] Copy OK

Track 11

Filename D:\backup\EACRips\Buffy the Vampire Slayer- Radio Sunnydale (2003)\11 - Aberdeen - Sink or Float.wav

Pre-gap length 0:00:00.02

Peak level 88.6 % Track quality 100.0 % Test CRC B8903832 Copy CRC B8903832 Accurately ripped (confidence 16) [91706A88] Copy OK

Track 12

Filename D:\backup\EACRips\Buffy the Vampire Slayer- Radio Sunnydale (2003)\12 - Patty Medina - Still Life.wav

Peak level 98.0 % Track quality 100.0 % Test CRC B400FA50 Copy CRC B400FA50 Accurately ripped (confidence 16) [49AA5276] Copy OK

Track 13

Filename D:\backup\EACRips\Buffy the Vampire Slayer- Radio Sunnydale (2003)\13 - Laika - Black Cat Bone.wav

Pre-gap length 0:00:00.06

Peak level 83.6 % Track quality 100.0 % Test CRC 41EFBB1F Copy CRC 41EFBB1F Accurately ripped (confidence 16) [C42C99AE] Copy OK

Track 14

Filename D:\backup\EACRips\Buffy the Vampire Slayer- Radio Sunnydale (2003)\14 - Man of the Year - Just as Nice.wav

Pre-gap length 0:00:00.02

Peak level 98.1 % Track quality 99.9 % Test CRC 81E0432D Copy CRC 81E0432D Accurately ripped (confidence 16) [22FC6CE3] Copy OK

Track 15

Filename D:\backup\EACRips\Buffy the Vampire Slayer- Radio Sunnydale (2003)\15 - Melanie Doane - I Can't Take My Eyes Off You.wav

Pre-gap length 0:00:00.04

Peak level 70.3 % Track quality 100.0 % Test CRC CC0DF772 Copy CRC CC0DF772 Accurately ripped (confidence 16) [F4B07D75] Copy OK

Track 16

Filename D:\backup\EACRips\Buffy the Vampire Slayer- Radio Sunnydale (2003)\16 - Fonda - The Sun Keeps Shining on Me.wav

Pre-gap length 0:00:00.06

Peak level 70.3 % Track quality 100.0 % Test CRC 5C14F4C0 Copy CRC 5C14F4C0 Accurately ripped (confidence 16) [15365EF1] Copy OK

Track 17

Filename D:\backup\EACRips\Buffy the Vampire Slayer- Radio Sunnydale (2003)\17 - Halo Friendlies - Run Away.wav

Pre-gap length 0:00:00.02

Peak level 88.5 % Track quality 99.9 % Test CRC CB88AC89 Copy CRC CB88AC89 Accurately ripped (confidence 16) [41D4F5C9] Copy OK

Track 18

Filename D:\backup\EACRips\Buffy the Vampire Slayer- Radio Sunnydale (2003)\18 - Emilнana Torrini - Summerbreeze.wav

Peak level 76.1 % Track quality 99.9 % Test CRC 19AC8EEF Copy CRC 19AC8EEF Accurately ripped (confidence 16) [0764C8FD] Copy OK

Track 19

Filename D:\backup\EACRips\Buffy the Vampire Slayer- Radio Sunnydale (2003)\19 - Cibo Matto - Sugar Water.wav

Peak level 88.5 % Track quality 100.0 % Test CRC 94A714D2 Copy CRC 94A714D2 Accurately ripped (confidence 16) [E2860359] Copy OK

Track 20

Filename D:\backup\EACRips\Buffy the Vampire Slayer- Radio Sunnydale (2003)\20 - Rob Duncan - The Final Fight [Original Score].wav

Pre-gap length 0:00:00.02

Peak level 87.0 % Track quality 100.0 % Test CRC 1FE56D90 Copy CRC 1FE56D90 Accurately ripped (confidence 16) [3FBD9F18] Copy OK

Track 21

Filename D:\backup\EACRips\Buffy the Vampire Slayer- Radio Sunnydale (2003)\21 - Nerf Herder - Buffy the Vampire Slayer Theme.wav

Peak level 66.4 % Track quality 100.0 % Test CRC B4FC54D7 Copy CRC B4FC54D7 Accurately ripped (confidence 16) [8DE7E9A9] Copy OK

All tracks accurately ripped

No errors occurred

End of status report
 
REM GENRE SoundtrackREM DATE 2003REM DISCID 48116C15REM COMMENT "ExactAudioCopy v0.99pb5"FILE "01 - The Breeders - Buffy Main Title Theme.wav" WAVE TRACK 01 AUDIO TITLE "Buffy Main Title Theme" PERFORMER "The Breeders" INDEX 01 00:00:00 TRACK 02 AUDIO TITLE "Bohemian Like You" PERFORMER "The Dandy Warhols" INDEX 00 01:12:25FILE "02 - The Dandy Warhols - Bohemian Like You.wav" WAVE INDEX 01 00:00:00 TRACK 03 AUDIO TITLE "Everybody Got Their Something" PERFORMER "Nikka Costa" INDEX 00 03:32:40FILE "03 - Nikka Costa - Everybody Got Their Something.wav" WAVE INDEX 01 00:00:00 TRACK 04 AUDIO TITLE "Dead Guys With Bombs" PERFORMER "Christophe Beck" INDEX 00 04:19:58FILE "04 - Christophe Beck - Dead Guys with Bombs.wav" WAVE INDEX 01 00:00:00 TRACK 05 AUDIO TITLE "Key" PERFORMER "devics" INDEX 00 02:54:63FILE "05 - Devics - Key.wav" WAVE INDEX 01 00:00:00 TRACK 06 AUDIO TITLE "Sound of the Revolution" PERFORMER "Lunatic Calm" INDEX 00 03:28:48FILE "06 - Lunatic Calm - Sound of the Revolution.wav" WAVE INDEX 01 00:00:00 TRACK 07 AUDIO TITLE "Ballad for Dead Friends" PERFORMER "Dashboard Prophets" INDEX 00 04:03:03FILE "07 - Dashboard Prophets - Ballad for Dead Friends.wav" WAVE INDEX 01 00:00:00 TRACK 08 AUDIO TITLE "Blue" PERFORMER "Angie Hart" INDEX 00 04:13:43FILE "08 - Angie Hart - Blue.wav" WAVE INDEX 01 00:00:00 TRACK 09 AUDIO TITLE "Pavlovs Bell" PERFORMER "Aimee Mann" INDEX 00 02:48:60FILE "09 - Aimee Mann - Pavlovs Bell.wav" WAVE INDEX 01 00:00:00 TRACK 10 AUDIO TITLE "That Kind of Love" PERFORMER "Alison Krauss" INDEX 00 04:26:05FILE "10 - Alison Krauss - That Kind of Love.wav" WAVE INDEX 01 00:00:00 TRACK 11 AUDIO TITLE "Sink or Float" PERFORMER "Aberdeen" INDEX 00 03:43:53FILE "11 - Aberdeen - Sink or Float.wav" WAVE INDEX 01 00:00:00FILE "12 - Patty Medina - Still Life.wav" WAVE TRACK 12 AUDIO TITLE "Still Life" PERFORMER "Patty Medina" INDEX 01 00:00:00 TRACK 13 AUDIO TITLE "Black Cat Bone" PERFORMER "Laika" INDEX 00 04:27:15FILE "13 - Laika - Black Cat Bone.wav" WAVE INDEX 01 00:00:00 TRACK 14 AUDIO TITLE "Just as Nice" PERFORMER "Man of the Year" INDEX 00 04:24:45FILE "14 - Man of the Year - Just as Nice.wav" WAVE INDEX 01 00:00:00 TRACK 15 AUDIO TITLE "I Can't Take My Eyes Off You" PERFORMER "Melanie Doane" INDEX 00 02:59:20FILE "15 - Melanie Doane - I Can't Take My Eyes Off You.wav" WAVE INDEX 01 00:00:00 TRACK 16 AUDIO TITLE "The Sun Keeps Shining On Me" PERFORMER "Fonda" INDEX 00 03:55:07FILE "16 - Fonda - The Sun Keeps Shining on Me.wav" WAVE INDEX 01 00:00:00 TRACK 17 AUDIO TITLE "Run Away" PERFORMER "Halo Friendlies" INDEX 00 04:06:63FILE "17 - Halo Friendlies - Run Away.wav" WAVE INDEX 01 00:00:00FILE "18 - Emilнana Torrini - Summerbreeze.wav" WAVE TRACK 18 AUDIO TITLE "Summerbreeze" PERFORMER "Emiliana Torrini" INDEX 01 00:00:00FILE "19 - Cibo Matto - Sugar Water.wav" WAVE TRACK 19 AUDIO TITLE "Sugar Water" PERFORMER "Cibo Matto" INDEX 01 00:00:00 TRACK 20 AUDIO TITLE "The Final Fight [Original Score]" PERFORMER "Rob Duncan" INDEX 00 04:29:50FILE "20 - Rob Duncan - The Final Fight [Original Score].wav" WAVE INDEX 01 00:00:00FILE "21 - Nerf Herder - Buffy the Vampire Slayer Theme.wav" WAVE TRACK 21 AUDIO TITLE "Buffy the Vampire Slayer Theme" PERFORMER "Nerf Herder" INDEX 01 00:00:00

Radio Sunnydale (US version)

Жанр: Soundtrack
Год выпуска диска: 2003
Производитель диска: США
Продолжительность: 0:40:17
Доп. Информация: Источник рипа what.cd. Оригинальный релизер evil_silence
Описание:
Buffy the Vampire Slayer - Radio Sunnydale - второй саундтрек к телесериалу Баффи Исстребительница Вампиров.
Radio Sunnydale последовал традиции первого саундтрека, правда, он включает в себя песни более известных исполнителей. Версия для США состоит из 12 треков.
01. The Breeders - Buffy Main Title Theme
02. Joey Ramone - Stop Thinking About It
03. The Dandy Warhols - Bohemian Like You
04. Nikka Costa - Everybody Got Their Something
05. Devics - Key
06. Lunatic Calm - Sound Of The Revolution
07. Dashboard Prophets - Ballad For Dead Friends
08. Angie Hart - Blue
09. Aimee Mann - Pavlov's Bell
10. Blur - There's No Other Way
11. Sarah Mclachlan - Prayer Of Saint Francis
12. Robert Duncan - The Final Fight (Original Score)
 
Exact Audio Copy V0.99 prebeta 5 from 4. May 2009

EAC extraction logfile from 21. March 2010, 22:27

Various Artists / Buffy The Vampire Slayer: Radio Sunnydale

Used drive : TSSTcorpDVD+-RW TS-L632H Adapter: 1 ID: 0

Read mode : SecureUtilize accurate stream : YesDefeat audio cache : YesMake use of C2 pointers : No

Read offset correction : 6Overread into Lead-In and Lead-Out : NoFill up missing offset samples with silence : YesDelete leading and trailing silent blocks : NoNull samples used in CRC calculations : YesUsed interface : Native Win32 interface for Win NT & 2000Gap handling : Appended to previous track

Used output format : User Defined EncoderSelected bitrate : 192 kBit/sQuality : HighAdd ID3 tag : NoCommand line compressor : C:\Program Files\Exact Audio Copy\Flac\flac.exeAdditional command line options : -V -8 -T "artist=%a" -T "title=%t" -T "album=%g" -T "date=%y" -T "tracknumber=%n" -T "genre=%m" %s

TOC of the extracted CD

Track | Start | Length | Start sector | End sector --------------------------------------------------------- 1 | 0:00.00 | 1:13.22 | 0 | 5496 2 | 1:13.22 | 2:58.63 | 5497 | 18909 3 | 4:12.10 | 3:33.30 | 18910 | 34914 4 | 7:45.40 | 4:20.73 | 34915 | 54487 5 | 12:06.38 | 3:30.04 | 54488 | 70241 6 | 15:36.42 | 4:04.11 | 70242 | 88552 7 | 19:40.53 | 4:14.47 | 88553 | 107649 8 | 23:55.25 | 2:49.59 | 107650 | 120383 9 | 26:45.09 | 4:27.38 | 120384 | 140446 10 | 31:12.47 | 3:14.15 | 140447 | 155011 11 | 34:26.62 | 2:01.14 | 155012 | 164100 12 | 36:28.01 | 4:03.34 | 164101 | 182359

Track 1

Filename C:\Downloads\Upload\WhatCD\Radio Sunnydale\01 Buffy Main Title Theme.wav

Pre-gap length 0:00:02.00

Peak level 97.7 % Track quality 100.0 % Test CRC B0F78A92 Copy CRC B0F78A92 Track not present in AccurateRip database Copy OK

Track 2

Filename C:\Downloads\Upload\WhatCD\Radio Sunnydale\02 Stop Thinking About It.wav

Pre-gap length 0:00:02.00

Peak level 94.3 % Track quality 99.9 % Test CRC 6D714495 Copy CRC 6D714495 Track not present in AccurateRip database Copy OK

Track 3

Filename C:\Downloads\Upload\WhatCD\Radio Sunnydale\03 Bohemian Like You.wav

Pre-gap length 0:00:02.00

Peak level 94.4 % Track quality 100.0 % Test CRC 4F736AF6 Copy CRC 4F736AF6 Track not present in AccurateRip database Copy OK

Track 4

Filename C:\Downloads\Upload\WhatCD\Radio Sunnydale\04 Everybody Got Their Something.wav

Pre-gap length 0:00:02.00

Peak level 97.7 % Track quality 99.9 % Test CRC 6E50CDCE Copy CRC 6E50CDCE Track not present in AccurateRip database Copy OK

Track 5

Filename C:\Downloads\Upload\WhatCD\Radio Sunnydale\05 Key.wav

Pre-gap length 0:00:02.00

Peak level 88.4 % Track quality 100.0 % Test CRC 3F323144 Copy CRC 3F323144 Track not present in AccurateRip database Copy OK

Track 6

Filename C:\Downloads\Upload\WhatCD\Radio Sunnydale\06 Sound Of The Revolution.wav

Pre-gap length 0:00:02.00

Peak level 90.1 % Track quality 100.0 % Test CRC 5A637C36 Copy CRC 5A637C36 Track not present in AccurateRip database Copy OK

Track 7

Filename C:\Downloads\Upload\WhatCD\Radio Sunnydale\07 Ballad For Dead Friends.wav

Pre-gap length 0:00:02.00

Peak level 100.0 % Track quality 99.9 % Test CRC 084A0AE3 Copy CRC 084A0AE3 Track not present in AccurateRip database Copy OK

Track 8

Filename C:\Downloads\Upload\WhatCD\Radio Sunnydale\08 Blue.wav

Pre-gap length 0:00:02.00

Peak level 73.3 % Track quality 99.8 % Test CRC 450AA104 Copy CRC 450AA104 Track not present in AccurateRip database Copy OK

Track 9

Filename C:\Downloads\Upload\WhatCD\Radio Sunnydale\09 Pavlov's Bell.wav

Pre-gap length 0:00:02.00

Peak level 97.7 % Track quality 99.8 % Test CRC 7F79A87F Copy CRC 7F79A87F Track not present in AccurateRip database Copy OK

Track 10

Filename C:\Downloads\Upload\WhatCD\Radio Sunnydale\10 There's No Other Way.wav

Pre-gap length 0:00:02.00

Peak level 100.0 % Track quality 99.8 % Test CRC B946D363 Copy CRC B946D363 Track not present in AccurateRip database Copy OK

Track 11

Filename C:\Downloads\Upload\WhatCD\Radio Sunnydale\11 Prayer Of Saint Francis.wav

Pre-gap length 0:00:02.00

Peak level 82.2 % Track quality 99.9 % Test CRC BDE2E390 Copy CRC BDE2E390 Track not present in AccurateRip database Copy OK

Track 12

Filename C:\Downloads\Upload\WhatCD\Radio Sunnydale\12 The Final Fight (original score).wav

Pre-gap length 0:00:02.00

Peak level 96.3 % Track quality 99.9 % Test CRC 6E1F2F45 Copy CRC 6E1F2F45 Track not present in AccurateRip database Copy OK

None of the tracks are present in the AccurateRip database

No errors occurred

End of status report
 
REM GENRE SoundtrackREM DATE 2003REM DISCID A8097F0CREM COMMENT "ExactAudioCopy v0.99pb5"PERFORMER "Various Artists"TITLE "Buffy The Vampire Slayer: Radio Sunnydale"FILE "01 Buffy Main Title Theme.wav" WAVE TRACK 01 AUDIO TITLE "Buffy Main Title Theme" PERFORMER "The Breeders" INDEX 01 00:00:00 TRACK 02 AUDIO TITLE "Stop Thinking About It" PERFORMER "Joey Ramone" INDEX 00 01:11:22FILE "02 Stop Thinking About It.wav" WAVE INDEX 01 00:00:00 TRACK 03 AUDIO TITLE "Bohemian Like You" PERFORMER "The Dandy Warhols" INDEX 00 02:56:63FILE "03 Bohemian Like You.wav" WAVE INDEX 01 00:00:00 TRACK 04 AUDIO TITLE "Everybody Got Their Something" PERFORMER "Nikka Costa" INDEX 00 03:31:30FILE "04 Everybody Got Their Something.wav" WAVE INDEX 01 00:00:00 TRACK 05 AUDIO TITLE "Key" PERFORMER "devics" INDEX 00 04:18:73FILE "05 Key.wav" WAVE INDEX 01 00:00:00 TRACK 06 AUDIO TITLE "Sound Of The Revolution" PERFORMER "Lunatic Calm" INDEX 00 03:28:04FILE "06 Sound Of The Revolution.wav" WAVE INDEX 01 00:00:00 TRACK 07 AUDIO TITLE "Ballad For Dead Friends" PERFORMER "Dashboard Prophets" INDEX 00 04:02:11FILE "07 Ballad For Dead Friends.wav" WAVE INDEX 01 00:00:00 TRACK 08 AUDIO TITLE "Blue" PERFORMER "Angie Hart" INDEX 00 04:12:47FILE "08 Blue.wav" WAVE INDEX 01 00:00:00 TRACK 09 AUDIO TITLE "Pavlov's Bell" PERFORMER "Aimee Mann" INDEX 00 02:47:59FILE "09 Pavlov's Bell.wav" WAVE INDEX 01 00:00:00 TRACK 10 AUDIO TITLE "There's No Other Way" PERFORMER "Blur" INDEX 00 04:25:38FILE "10 There's No Other Way.wav" WAVE INDEX 01 00:00:00 TRACK 11 AUDIO TITLE "Prayer Of Saint Francis" PERFORMER "Sarah McLachlan" INDEX 00 03:12:15FILE "11 Prayer Of Saint Francis.wav" WAVE INDEX 01 00:00:00 TRACK 12 AUDIO TITLE "The Final Fight (Original Score)" PERFORMER "Rob Duncan" INDEX 00 01:59:14FILE "12 The Final Fight (Original Score).wav" WAVE INDEX 01 00:00:00

Once More, with Feeling

Жанр: Musical
Год выпуска диска: 2002
Производитель диска: Германия
Продолжительность: 57:35
Доп. Информация: Источник рипа форум ffshrine.org.
Описание:
Музыкальный CD к Once More, with Feeling вышел в 2002 году. На диске есть вся музыка из этой серии включая дополнительные треки, а именно демо песни "Something to Sing About", спетая Джоссом Видоном и его женой Каи Коул, и три трека музыки из других популярных эпизодов Баффи написанные Кристофом Беком. Рисунок для диска — также используемый как обложка для соответственных товаров, такие как: книжка со сценарием, DVD диск и постер — нарисована знаминитым художником для комиксов Адомом Хьюгсом. Буклет включает комментарии от Джосса Видона, текст песен, и картинки из эпизода .
01 - Overture ~ Going Through the Motions
02 - I've Got a Theory ~ Bunnies ~ If We're Together
03 - The Mustard
04 - Under Your Spell
05 - I'll Never Tell
06 - The Parking Ticket
07 - Rest in Peace
08 - Dawn's Lament
09 - Dawn's Ballet
10 - What You Feel
11 - Standing
12 - Under Your Spell ~ Standing - Reprise
13 - Walk Through the Fire
14 - Something to Sing About
15 - What You Feel - Reprise
16 - Where Do We Go From Here?
17 - Coda
18 - End Credits (Broom Dance ~ Grr Arrgh)
19 - Main Title
20 - Suite from 'Restless' - Willow's Nightmare ~ First Rage ~ Chain of Ancients
21 - Suite from 'Hush' - Silent Night ~ First Kiss ~ Enter The Gentlemen ~ Schism
22 - Sacrifice (from 'The Gift')
23 - Something to Sing About (Demo)
 
Exact Audio Copy V0.99 prebeta 4 from 23. January 2008

EAC extraction logfile from 20. June 2008, 22:16

Various / Buffy the Vampire Slayer - Once More, With Feeling

Used drive : Pioneer DVD-RW DVR-K17RS Adapter: 4 ID: 0

Read mode : SecureUtilize accurate stream : YesDefeat audio cache : YesMake use of C2 pointers : No

Read offset correction : 48Overread into Lead-In and Lead-Out : NoFill up missing offset samples with silence : YesDelete leading and trailing silent blocks : NoNull samples used in CRC calculations : YesUsed interface : Installed external ASPI interfaceGap handling : Appended to previous track

Used output format : User Defined EncoderSelected bitrate : 192 kBit/sQuality : HighAdd ID3 tag : NoCommand line compressor : C:\Program Files\FLAC\flac.exeAdditional command line options : -8 -A tukey(0.25) -A gauss(0.1875) -b 4096 -V -T "artist=%a" -T "title=%t" -T "album=%g" -T "date=%y" -T "tracknumber=%n" -T "genre=%m" %s --sector-align

TOC of the extracted CD

Track | Start | Length | Start sector | End sector --------------------------------------------------------- 1 | 0:00.00 | 2:57.05 | 0 | 13279 2 | 2:57.05 | 2:21.72 | 13280 | 23926 3 | 5:19.02 | 0:19.50 | 23927 | 25401 4 | 5:38.52 | 2:54.60 | 25402 | 38511 5 | 8:33.37 | 4:01.20 | 38512 | 56606 6 | 12:34.57 | 0:44.65 | 56607 | 59971 7 | 13:19.47 | 2:45.33 | 59972 | 72379 8 | 16:05.05 | 1:18.72 | 72380 | 78301 9 | 17:24.02 | 1:12.43 | 78302 | 83744 10 | 18:36.45 | 3:01.12 | 83745 | 97331 11 | 21:37.57 | 2:10.38 | 97332 | 107119 12 | 23:48.20 | 1:34.60 | 107120 | 114229 13 | 25:23.05 | 3:43.72 | 114230 | 131026 14 | 29:07.02 | 4:40.40 | 131027 | 152066 15 | 33:47.42 | 0:45.65 | 152067 | 155506 16 | 34:33.32 | 1:52.53 | 155507 | 163959 17 | 36:26.10 | 0:41.17 | 163960 | 167051 18 | 37:07.27 | 0:33.60 | 167052 | 169586 19 | 37:41.12 | 0:26.20 | 169587 | 171556 20 | 38:07.32 | 5:04.25 | 171557 | 194381 21 | 43:11.57 | 6:56.15 | 194382 | 225596 22 | 50:07.72 | 2:57.53 | 225597 | 238924 23 | 53:05.50 | 4:29.27 | 238925 | 259126

Track 1

Filename D:\Music\EAC\Buffy\01 - Overture ~ Going Through the Motions.wav

Pre-gap length 0:00:02.00

Peak level 98.8 % Track quality 100.0 % Test CRC 54A3987D Copy CRC 54A3987D Copy OK

Track 2

Filename D:\Music\EAC\Buffy\02 - I've Got a Theory ~ Bunnies ~ If We're Together.wav

Peak level 98.8 % Track quality 100.0 % Test CRC AE311D30 Copy CRC AE311D30 Copy OK

Track 3

Filename D:\Music\EAC\Buffy\03 - The Mustard.wav

Peak level 98.0 % Track quality 100.0 % Test CRC 2E23A146 Copy CRC 2E23A146 Copy OK

Track 4

Filename D:\Music\EAC\Buffy\04 - Under Your Spell.wav

Peak level 98.8 % Track quality 100.0 % Test CRC 08C8BE0A Copy CRC 08C8BE0A Copy OK

Track 5

Filename D:\Music\EAC\Buffy\05 - I'll Never Tell.wav

Peak level 98.8 % Track quality 100.0 % Test CRC 06A8F0E6 Copy CRC 06A8F0E6 Copy OK

Track 6

Filename D:\Music\EAC\Buffy\06 - The Parking Ticket.wav

Peak level 98.8 % Track quality 100.0 % Test CRC 2D698699 Copy CRC 2D698699 Copy OK

Track 7

Filename D:\Music\EAC\Buffy\07 - Rest in Peace.wav

Peak level 98.8 % Track quality 100.0 % Test CRC 2AB9F36B Copy CRC 2AB9F36B Copy OK

Track 8

Filename D:\Music\EAC\Buffy\08 - Dawn's Lament.wav

Peak level 98.8 % Track quality 100.0 % Test CRC 86F1C6F4 Copy CRC 86F1C6F4 Copy OK

Track 9

Filename D:\Music\EAC\Buffy\09 - Dawn's Ballet.wav

Peak level 98.8 % Track quality 100.0 % Test CRC E7D89055 Copy CRC E7D89055 Copy OK

Track 10

Filename D:\Music\EACBuffy\10 - What You Feel.wav

Peak level 95.0 % Track quality 100.0 % Test CRC 5AD668C5 Copy CRC 5AD668C5 Copy OK

Track 11

Filename D:\Music\EAC\Buffy\11 - Standing.wav

Peak level 98.8 % Track quality 99.9 % Test CRC FDD00CD5 Copy CRC FDD00CD5 Copy OK

Track 12

Filename D:\Music\EAC\Buffy\12 - Under Your Spell ~ Standing - Reprise.wav

Peak level 98.8 % Track quality 100.0 % Test CRC 8854FF98 Copy CRC 8854FF98 Copy OK

Track 13

Filename D:\Music\EAC\Buffy\13 - Walk Through the Fire.wav

Peak level 98.8 % Track quality 100.0 % Test CRC BA0DA0A2 Copy CRC BA0DA0A2 Copy OK

Track 14

Filename D:\Music\EAC\Buffy\14 - Something to Sing About.wav

Peak level 98.8 % Track quality 100.0 % Test CRC AAF32AA6 Copy CRC AAF32AA6 Copy OK

Track 15

Filename D:\Music\EAC\Buffy\15 - What You Feel - Reprise.wav

Peak level 71.6 % Track quality 100.0 % Test CRC 49CCED67 Copy CRC 49CCED67 Copy OK

Track 16

Filename D:\Music\EAC\Buffy\16 - Where Do We Go From Here .wav

Peak level 98.8 % Track quality 100.0 % Test CRC 4B90A0E8 Copy CRC 4B90A0E8 Copy OK

Track 17

Filename D:\Music\EAC\Buffy\17 - Coda.wav

Peak level 98.8 % Track quality 100.0 % Test CRC 7882C099 Copy CRC 7882C099 Copy OK

Track 18

Filename D:\Music\EAC\Buffy\18 - End Credits (Broom Dance ~ Grr Arrgh).wav

Peak level 98.8 % Track quality 100.0 % Test CRC 6526C8BD Copy CRC 6526C8BD Copy OK

Track 19

Filename D:\Music\EAC\Buffy\19 - Main Title.wav

Peak level 98.8 % Track quality 100.0 % Test CRC 8A14C871 Copy CRC 8A14C871 Copy OK

Track 20

Filename D:\Music\EAC\Buffy\20 - Suite from 'Restless' - Willow's Nightmare ~ First Rage ~ Chain of Ancients.wav

Peak level 98.8 % Track quality 100.0 % Test CRC 11051192 Copy CRC 11051192 Copy OK

Track 21

Filename D:\Music\EAC\Buffy\21 - Suite from 'Hush' - Silent Night ~ First Kiss ~ Enter The Gentlemen ~ Schism.wav

Peak level 98.8 % Track quality 100.0 % Test CRC 8F62C8B0 Copy CRC 8F62C8B0 Copy OK

Track 22

Filename D:\Music\EAC\Buffy\22 - Sacrifice (from 'The Gift').wav

Peak level 98.8 % Track quality 100.0 % Test CRC D8409C32 Copy CRC D8409C32 Copy OK

Track 23

Filename D:\Music\EAC\Buffy\23 - Something to Sing About (Demo).wav

Peak level 98.8 % Track quality 100.0 % Test CRC 55D29055 Copy CRC 55D29055 Copy OK

No errors occurred

End of status report
 
REM GENRE MusicalREM DATE 2002REM DISCID 430D7D17REM COMMENT "ExactAudioCopy v0.99pb4"PERFORMER "Various"TITLE "Once More, With Feeling"FILE "01 - Overture ~ Going Through the Motions.wav" WAVE TRACK 01 AUDIO TITLE "Overture ~ Going Through the Motions" PERFORMER "Buffy Cast" INDEX 01 00:00:00FILE "02 - I've Got a Theory ~ Bunnies ~ If We're Together.wav" WAVE TRACK 02 AUDIO TITLE "I've Got a Theory ~ Bunnies ~ If We're Together" PERFORMER "Buffy Cast" INDEX 01 00:00:00FILE "03 - The Mustard.wav" WAVE TRACK 03 AUDIO TITLE "The Mustard" PERFORMER "Buffy Cast" INDEX 01 00:00:00 TRACK 04 AUDIO TITLE "Under Your Spell" PERFORMER "Amber Benson" INDEX 00 00:18:28FILE "04 - Under Your Spell.wav" WAVE INDEX 01 00:00:00FILE "05 - I'll Never Tell.wav" WAVE TRACK 05 AUDIO TITLE "I'll Never Tell" PERFORMER "Emma Caulfield, Nicholas Brendon" INDEX 01 00:00:00FILE "06 - The Parking Ticket.wav" WAVE TRACK 06 AUDIO TITLE "The Parking Ticket" PERFORMER "Buffy Cast" INDEX 01 00:00:00FILE "07 - Rest in Peace.wav" WAVE TRACK 07 AUDIO TITLE "Rest in Peace" PERFORMER "James Marsters" INDEX 01 00:00:00FILE "08 - Dawn's Lament.wav" WAVE TRACK 08 AUDIO TITLE "Dawn's Lament" PERFORMER "Michelle Trachtenberg" INDEX 01 00:00:00FILE "09 - Dawn's Ballet.wav" WAVE TRACK 09 AUDIO TITLE "Dawn's Ballet" PERFORMER "Christophe Beck" INDEX 01 00:00:00FILE "10 - What You Feel.wav" WAVE TRACK 10 AUDIO TITLE "What You Feel" PERFORMER "Hinton Battle, Michelle Trachtenberg" INDEX 01 00:00:00FILE "11 - Standing.wav" WAVE TRACK 11 AUDIO TITLE "Standing" PERFORMER "Anthony Stewart Head" INDEX 01 00:00:00FILE "12 - Under Your Spell ~ Standing - Reprise.wav" WAVE TRACK 12 AUDIO TITLE "Under Your Spell ~ Standing - Reprise" PERFORMER "Amber Benson, Anthony Stewart Head" INDEX 01 00:00:00FILE "13 - Walk Through the Fire.wav" WAVE TRACK 13 AUDIO TITLE "Walk Through the Fire" PERFORMER "Buffy Cast" INDEX 01 00:00:00FILE "14 - Something to Sing About.wav" WAVE TRACK 14 AUDIO TITLE "Something to Sing About" PERFORMER "Sarah Michelle Gellar, James Marsters" INDEX 01 00:00:00FILE "15 - What You Feel - Reprise.wav" WAVE TRACK 15 AUDIO TITLE "What You Feel - Reprise" PERFORMER "Hinton Battle" INDEX 01 00:00:00FILE "16 - Where Do We Go From Here.wav" WAVE TRACK 16 AUDIO TITLE "Where Do We Go From Here?" PERFORMER "Buffy Cast" INDEX 01 00:00:00FILE "17 - Coda.wav" WAVE TRACK 17 AUDIO TITLE "Coda" PERFORMER "Buffy Cast" INDEX 01 00:00:00 TRACK 18 AUDIO TITLE "End Credits (Broom Dance ~ Grr Arrgh)" PERFORMER "Joss Whedon" INDEX 00 00:39:57FILE "18 - End Credits (Broom Dance ~ Grr Arrgh).wav" WAVE INDEX 01 00:00:00 TRACK 19 AUDIO TITLE "Main Title" PERFORMER "Nerf Herder" INDEX 00 00:30:35FILE "19 - Main Title.wav" WAVE INDEX 01 00:00:00 TRACK 20 AUDIO TITLE "Suite from 'Restless' - Willow's Nightmare ~ First Rage ~ Chain of Ancients" PERFORMER "Christophe Beck" INDEX 00 00:23:70FILE "20 - Suite from 'Restless' - Willow's Nightmare ~ First Rage ~ Chain of Ancients.wav" WAVE INDEX 01 00:00:00 TRACK 21 AUDIO TITLE "Suite from 'Hush' - Silent Night ~ First Kiss ~ Enter The Gentlemen ~ Schism" PERFORMER "Christophe Beck" INDEX 00 05:01:30FILE "21 - Suite from 'Hush' - Silent Night ~ First Kiss ~ Enter The Gentlemen ~ Schism.wav" WAVE INDEX 01 00:00:00 TRACK 22 AUDIO TITLE "Sacrifice (from 'The Gift')" PERFORMER "Christophe Beck" INDEX 00 06:54:18FILE "22 - Sacrifice (from 'The Gift').wav" WAVE INDEX 01 00:00:00 TRACK 23 AUDIO TITLE "Something to Sing About (Demo)" PERFORMER "Kai Cole, Joss Whedon" INDEX 00 02:54:60FILE "23 - Something to Sing About (Demo).wav" WAVE INDEX 01 00:00:00

Live Fast, Die Never

Жанр: Score
Композитор: Robert J. Kral
Год выпуска диска: 2005
Производитель диска: Великобритания
Продолжительность: 1:19:09
Доп. Информация: Источник рипа what.cd. Оригинальный релизер DragnFly
Описание:
Angel: Live Fast, Die Never в основном содержит музыку из серий написанную Робертом Кралом. В дополнение он содержит расширеную версию титульного трека из сериала написаного группой Darling Violetta, выступления таких актеров как Энди Халлета(это Лорн (зелёный который))), и Кристианом Кейном, а так же "A Place Called Home" написанный Кимом Ричи, который прозвучал в эпизоде "Shells", и "Touched" написанный VAST который звучал во втором эпизоде Ангела - "Lonely Hearts". Альбом был выпущен в США 17 мая 2005(год спустя после заключительного эпизода Ангела).
"I'm Game" была написана Кристофом Беком, и была использована на протяжении всех эпизодов как главная тема где бы Ангел или его комманда проявляла героические действия. "Touched" была признана многими фанатами стать главной темой к шоу, и музыка VAST была в оригинальном пилоте Ангела.
"LA Song" была написана Дейвидом Гринволтом, который помогал снимать серии для ангела, этот трек исполнил Кристиан Кейн который играл Линдсея МакДональда во всех пяти сезонах шоу. "Lady Marmalade" и "It's Not Easy Being Green" оба были исполнены Энди Халлетом. "A Place Called Home" написаный Ким Ричи был исполнен в течение последнего сезона как трибьют к Фред Бёркл.
Элин Кларксон записывала вокал для всех score треков. Роберт Крал настоял чтобы треки были собраны со всех пяти сезонов основываясь на популярности треков среди фанатов. Большинство треков на самом деле расширенные версии, сочетающие в себе множество кусочков из отдельных эпизодов.
01 - Darling Violetta , Angel Main Theme - The Sanctuary Extended Remix
02 - Start the Apocalypse
03 - The End of the World
04 - Massive Assault
05 - Home
06 - Hero
07 - Judgment & Jousting
08 - The Birth of Angelus
09 - Rebellion
10 - The Trials For Darla
11 - Dreaming of Darla
12 - Untouched-Darla's Fire
13 - Darla's Sacrifice
14 - Welcome To Pylea
15 - Through The Looking Glass
16 - Castle Attack
17 - Cordy Meets Fred
18 - Princess Cordelia
19 - Farewell Cordelia
20 - Christophe Beck , I'm Game
21 - Vast , Touched
22 - Christian Kane , LA Song
23 - Andy Hallett , Lady Marmalade
24 - Andy Hallett , It's Not Easy Being Green
25 - Kim Richey , A Place Called Home
 
Exact Audio Copy V0.99 prebeta 4 from 23. January 2008

EAC extraction logfile from 17. June 2008, 22:07

Robert J. Kral / Angel: Live Fast Die Never

Used drive : TSSTcorpDVD-ROM TS-H352C Adapter: 1 ID: 1

Read mode : SecureUtilize accurate stream : YesDefeat audio cache : YesMake use of C2 pointers : No

Read offset correction : 6Overread into Lead-In and Lead-Out : NoFill up missing offset samples with silence : YesDelete leading and trailing silent blocks : NoNull samples used in CRC calculations : YesUsed interface : Installed external ASPI interfaceGap handling : Appended to previous track

Used output format : User Defined EncoderSelected bitrate : 192 kBit/sQuality : HighAdd ID3 tag : NoCommand line compressor : C:\Program Files\FLAC\flac.exeAdditional command line options : -8 -A tukey(0.25) -A gauss(0.1875) -b 4096 -V -T "artist=%a" -T "title=%t" -T "album=%g" -T "date=%y" -T "tracknumber=%n" -T "genre=%m" %s --sector-align

TOC of the extracted CD

Track | Start | Length | Start sector | End sector --------------------------------------------------------- 1 | 0:00.00 | 3:23.01 | 0 | 15225 2 | 3:23.01 | 3:35.64 | 15226 | 31414 3 | 6:58.65 | 1:42.74 | 31415 | 39138 4 | 8:41.64 | 3:14.18 | 39139 | 53706 5 | 11:56.07 | 1:56.16 | 53707 | 62422 6 | 13:52.23 | 5:24.43 | 62423 | 86765 7 | 19:16.66 | 2:02.55 | 86766 | 95970 8 | 21:19.46 | 3:30.63 | 95971 | 111783 9 | 24:50.34 | 3:09.26 | 111784 | 125984 10 | 27:59.60 | 5:59.24 | 125985 | 152933 11 | 33:59.09 | 3:24.61 | 152934 | 168294 12 | 37:23.70 | 2:11.53 | 168295 | 178172 13 | 39:35.48 | 5:43.12 | 178173 | 203909 14 | 45:18.60 | 4:22.03 | 203910 | 223562 15 | 49:40.63 | 4:06.28 | 223563 | 242040 16 | 53:47.16 | 2:20.17 | 242041 | 252557 17 | 56:07.33 | 2:54.01 | 252558 | 265608 18 | 59:01.34 | 1:20.01 | 265609 | 271609 19 | 60:21.35 | 1:09.38 | 271610 | 276822 20 | 61:30.73 | 1:12.53 | 276823 | 282275 21 | 62:43.51 | 3:58.74 | 282276 | 300199 22 | 66:42.50 | 3:06.57 | 300200 | 314206 23 | 69:49.32 | 2:29.06 | 314207 | 325387 24 | 72:18.38 | 2:53.49 | 325388 | 338411 25 | 75:12.12 | 3:57.15 | 338412 | 356201

Track 1

Filename N:\Music\Angel Live Fast Die Never\01 - Darling Violetta , Angel Main Theme - The Sanctuary Extended Remix.wav

Pre-gap length 0:00:02.00

Peak level 98.8 % Track quality 100.0 % Test CRC CD15AC3F Copy CRC CD15AC3F Copy OK

Track 2

Filename N:\Music\Angel Live Fast Die Never\02 - Start the Apocalypse.wav

Pre-gap length 0:00:01.00

Peak level 98.8 % Track quality 99.9 % Test CRC D88D5C9B Copy CRC D88D5C9B Copy OK

Track 3

Filename N:\Music\Angel Live Fast Die Never\03 - The End of the World.wav

Peak level 93.2 % Track quality 100.0 % Test CRC 58D946E5 Copy CRC 58D946E5 Copy OK

Track 4

Filename N:\Music\Angel Live Fast Die Never\04 - Massive Assault.wav

Pre-gap length 0:00:01.00

Peak level 93.6 % Track quality 99.9 % Test CRC 1D266C3E Copy CRC 1D266C3E Copy OK

Track 5

Filename N:\Music\Angel Live Fast Die Never\05 - Home.wav

Pre-gap length 0:00:01.00

Peak level 92.8 % Track quality 99.9 % Test CRC 94D40A6C Copy CRC 94D40A6C Copy OK

Track 6

Filename N:\Music\Angel Live Fast Die Never\06 - Hero.wav

Pre-gap length 0:00:01.00

Peak level 71.6 % Track quality 100.0 % Test CRC DEBD6DEB Copy CRC DEBD6DEB Copy OK

Track 7

Filename N:\Music\Angel Live Fast Die Never\07 - Judgment & Jousting.wav

Pre-gap length 0:00:01.00

Peak level 93.9 % Track quality 100.0 % Test CRC 7C622288 Copy CRC 7C622288 Copy OK

Track 8

Filename N:\Music\Angel Live Fast Die Never\08 - The Birth of Angelus.wav

Pre-gap length 0:00:02.00

Peak level 94.1 % Track quality 99.9 % Test CRC 40753006 Copy CRC 40753006 Copy OK

Track 9

Filename N:\Music\Angel Live Fast Die Never\09 - Rebellion.wav

Pre-gap length 0:00:01.00

Peak level 95.1 % Track quality 100.0 % Test CRC FB1AD58D Copy CRC FB1AD58D Copy OK

Track 10

Filename N:\Music\Angel Live Fast Die Never\10 - The Trials For Darla.wav

Pre-gap length 0:00:01.00

Peak level 95.9 % Track quality 100.0 % Test CRC DE1A4DBF Copy CRC DE1A4DBF Copy OK

Track 11

Filename N:\Music\Angel Live Fast Die Never\11 - Dreaming of Darla.wav

Pre-gap length 0:00:01.00

Peak level 95.3 % Track quality 100.0 % Test CRC 766553BA Copy CRC 766553BA Copy OK

Track 12

Filename N:\Music\Angel Live Fast Die Never\12 - Untouched-Darla's Fire.wav

Pre-gap length 0:00:01.00

Peak level 93.2 % Track quality 100.0 % Test CRC 6313C352 Copy CRC 6313C352 Copy OK

Track 13

Filename N:\Music\Angel Live Fast Die Never\13 - Darla's Sacrifice.wav

Pre-gap length 0:00:01.00

Peak level 93.7 % Track quality 100.0 % Test CRC 2E9951C5 Copy CRC 2E9951C5 Copy OK

Track 14

Filename N:\Music\Angel Live Fast Die Never\14 - Welcome To Pylea.wav

Pre-gap length 0:00:01.00

Peak level 95.3 % Track quality 100.0 % Test CRC 837A9898 Copy CRC 837A9898 Copy OK

Track 15

Filename N:\Music\Angel Live Fast Die Never\15 - Through The Looking Glass.wav

Pre-gap length 0:00:01.00

Peak level 93.8 % Track quality 99.9 % Test CRC D23AFDE8 Copy CRC D23AFDE8 Copy OK

Track 16

Filename N:\Music\Angel Live Fast Die Never\16 - Castle Attack.wav

Pre-gap length 0:00:01.00

Peak level 93.9 % Track quality 100.0 % Test CRC B9274273 Copy CRC B9274273 Copy OK

Track 17

Filename N:\Music\Angel Live Fast Die Never\17 - Cordy Meets Fred.wav

Pre-gap length 0:00:01.00

Peak level 93.9 % Track quality 99.9 % Test CRC C0B10528 Copy CRC C0B10528 Copy OK

Track 18

Filename N:\Music\Angel Live Fast Die Never\18 - Princess Cordelia.wav

Pre-gap length 0:00:01.00

Peak level 40.7 % Track quality 99.8 % Test CRC EB6C0804 Copy CRC EB6C0804 Copy OK

Track 19

Filename N:\Music\Angel Live Fast Die Never\19 - Farewell Cordelia.wav

Pre-gap length 0:00:01.00

Peak level 91.8 % Track quality 100.0 % Test CRC FACE4135 Copy CRC FACE4135 Copy OK

Track 20

Filename N:\Music\Angel Live Fast Die Never\20 - Christophe Beck , I'm Game.wav

Pre-gap length 0:00:01.00

Peak level 92.8 % Track quality 99.8 % Test CRC 677FC9AB Copy CRC 677FC9AB Copy OK

Track 21

Filename N:\Music\Angel Live Fast Die Never\21 - Vast , Touched.wav

Pre-gap length 0:00:01.00

Peak level 84.0 % Track quality 100.0 % Test CRC CA4397E3 Copy CRC CA4397E3 Copy OK

Track 22

Filename N:\Music\Angel Live Fast Die Never\22 - Christian Kane , LA Song.wav

Pre-gap length 0:00:01.00

Peak level 98.0 % Track quality 100.0 % Test CRC 8F2B2759 Copy CRC 8F2B2759 Copy OK

Track 23

Filename N:\Music\Angel Live Fast Die Never\23 - Andy Hallett , Lady Marmalade.wav

Pre-gap length 0:00:01.00

Peak level 98.8 % Track quality 99.9 % Test CRC F9B40B98 Copy CRC F9B40B98 Copy OK

Track 24

Filename N:\Music\Angel Live Fast Die Never\24 - Andy Hallett , It's Not Easy Being Green.wav

Pre-gap length 0:00:01.00

Peak level 98.7 % Track quality 99.9 % Test CRC FEF4BB73 Copy CRC FEF4BB73 Copy OK

Track 25

Filename N:\Music\Angel Live Fast Die Never\25 - Kim Richey , A Place Called Home.wav

Pre-gap length 0:00:00.98

Peak level 58.3 % Track quality 100.0 % Test CRC E03154E1 Copy CRC E03154E1 Copy OK

No errors occurred

End of status report
 
REM GENRE SoundtrackREM DISCID 56128D19REM COMMENT "ExactAudioCopy v0.99pb4"PERFORMER "Robert J. Kral"TITLE "Angel: Live Fast Die Never"FILE "01 - Darling Violetta , Angel Main Theme - The Sanctuary Extended Remix.wav" WAVE TRACK 01 AUDIO TITLE "Darling Violetta / Angel Main Theme - The Sanctuary Extended Remix" PERFORMER "Robert J. Kral" INDEX 01 00:00:00 TRACK 02 AUDIO TITLE "Start the Apocalypse" PERFORMER "Robert J. Kral" INDEX 00 03:22:01FILE "02 - Start the Apocalypse.wav" WAVE INDEX 01 00:00:00FILE "03 - The End of the World.wav" WAVE TRACK 03 AUDIO TITLE "The End of the World" PERFORMER "Robert J. Kral" INDEX 01 00:00:00 TRACK 04 AUDIO TITLE "Massive Assault" PERFORMER "Robert J. Kral" INDEX 00 01:41:74FILE "04 - Massive Assault.wav" WAVE INDEX 01 00:00:00 TRACK 05 AUDIO TITLE "Home" PERFORMER "Robert J. Kral" INDEX 00 03:13:18FILE "05 - Home.wav" WAVE INDEX 01 00:00:00 TRACK 06 AUDIO TITLE "Hero" PERFORMER "Robert J. Kral" INDEX 00 01:55:16FILE "06 - Hero.wav" WAVE INDEX 01 00:00:00 TRACK 07 AUDIO TITLE "Judgment & Jousting" PERFORMER "Robert J. Kral" INDEX 00 05:23:43FILE "07 - Judgment & Jousting.wav" WAVE INDEX 01 00:00:00 TRACK 08 AUDIO TITLE "The Birth of Angelus" PERFORMER "Robert J. Kral" INDEX 00 02:00:55FILE "08 - The Birth of Angelus.wav" WAVE INDEX 01 00:00:00 TRACK 09 AUDIO TITLE "Rebellion" PERFORMER "Robert J. Kral" INDEX 00 03:29:63FILE "09 - Rebellion.wav" WAVE INDEX 01 00:00:00 TRACK 10 AUDIO TITLE "The Trials For Darla" PERFORMER "Robert J. Kral" INDEX 00 03:08:26FILE "10 - The Trials For Darla.wav" WAVE INDEX 01 00:00:00 TRACK 11 AUDIO TITLE "Dreaming of Darla" PERFORMER "Robert J. Kral" INDEX 00 05:58:24FILE "11 - Dreaming of Darla.wav" WAVE INDEX 01 00:00:00 TRACK 12 AUDIO TITLE "Untouched\Darla's Fire" PERFORMER "Robert J. Kral" INDEX 00 03:23:61FILE "12 - Untouched-Darla's Fire.wav" WAVE INDEX 01 00:00:00 TRACK 13 AUDIO TITLE "Darla's Sacrifice" PERFORMER "Robert J. Kral" INDEX 00 02:10:53FILE "13 - Darla's Sacrifice.wav" WAVE INDEX 01 00:00:00 TRACK 14 AUDIO TITLE "Welcome To Pylea" PERFORMER "Robert J. Kral" INDEX 00 05:42:12FILE "14 - Welcome To Pylea.wav" WAVE INDEX 01 00:00:00 TRACK 15 AUDIO TITLE "Through The Looking Glass" PERFORMER "Robert J. Kral" INDEX 00 04:21:03FILE "15 - Through The Looking Glass.wav" WAVE INDEX 01 00:00:00 TRACK 16 AUDIO TITLE "Castle Attack" PERFORMER "Robert J. Kral" INDEX 00 04:05:28FILE "16 - Castle Attack.wav" WAVE INDEX 01 00:00:00 TRACK 17 AUDIO TITLE "Cordy Meets Fred" PERFORMER "Robert J. Kral" INDEX 00 02:19:17FILE "17 - Cordy Meets Fred.wav" WAVE INDEX 01 00:00:00 TRACK 18 AUDIO TITLE "Princess Cordelia" PERFORMER "Robert J. Kral" INDEX 00 02:53:01FILE "18 - Princess Cordelia.wav" WAVE INDEX 01 00:00:00 TRACK 19 AUDIO TITLE "Farewell Cordelia" PERFORMER "Robert J. Kral" INDEX 00 01:19:01FILE "19 - Farewell Cordelia.wav" WAVE INDEX 01 00:00:00 TRACK 20 AUDIO TITLE "Christophe Beck / I'm Game" PERFORMER "Robert J. Kral" INDEX 00 01:08:38FILE "20 - Christophe Beck , I'm Game.wav" WAVE INDEX 01 00:00:00 TRACK 21 AUDIO TITLE "Vast / Touched" PERFORMER "Robert J. Kral" INDEX 00 01:11:53FILE "21 - Vast , Touched.wav" WAVE INDEX 01 00:00:00 TRACK 22 AUDIO TITLE "Christian Kane / LA Song" PERFORMER "Robert J. Kral" INDEX 00 03:57:74FILE "22 - Christian Kane , LA Song.wav" WAVE INDEX 01 00:00:00 TRACK 23 AUDIO TITLE "Andy Hallett / Lady Marmalade" PERFORMER "Robert J. Kral" INDEX 00 03:05:57FILE "23 - Andy Hallett , Lady Marmalade.wav" WAVE INDEX 01 00:00:00 TRACK 24 AUDIO TITLE "Andy Hallett / It's Not Easy Being Green" PERFORMER "Robert J. Kral" INDEX 00 02:28:06FILE "24 - Andy Hallett , It's Not Easy Being Green.wav" WAVE INDEX 01 00:00:00 TRACK 25 AUDIO TITLE "Kim Richey / A Place Called Home" PERFORMER "Robert J. Kral" INDEX 00 02:52:50FILE "25 - Kim Richey , A Place Called Home.wav" WAVE INDEX 01 00:00:00


Жанр: Score
Композитор: Christophe Beck
Год выпуска диска: 2008
Производитель диска: США
Продолжительность: 55:19
Доп. Информация: Источник рипа форум ffshrine.org.
Описание:
Buffy the Vampire Slayer: The Score - саундтрек включающай в себя только музыку из сериала Баффи Исстребительница Вампиров.
Это первый CD релиз который посвящен музыке из этого сериала. Он включает в себя треки из второго, третьего и четвертого сезона баффи, а так же композицию "The Gift" из пятого сезона. Альбом вышел 9 сентября 2008 года.
01 - Massacre (from 'Becoming')
02 - Angel Waits (from 'Passion')
03 - Remembering Jenny (from 'Passion')
04 - Twice the Fool (from 'Bewitched, Bothered and Bewildered')
05 - Moment of Happiness (from 'Innocence')
06 - Loneliness of Six (from 'Lover's Walk')
07 - Sugar High (from 'Band Candy')
08 - Tai Chi (from 'Band Candy')
09 - Kralik's House (from 'Helpless')
10 - Magic Snow Music (from 'Amends')
11 - Slayer's Elegy (from 'The Wish')
12 - Faith's End (from 'Graduation Day')
13 - Drink Me (from 'Graduation Day')
14 - One Last Moment (from 'Graduation Day')
15 - Haunted (from 'Fear Itself')
16 - From the Grave (from 'This Year's Girl')
17 - Demon Got Your Tongue (from 'Hush')
18 - Golf Claps (from 'Hush')
19 - The Princess Screams (from 'Hush')
20 - Spellbound (from 'Who Are You ')
21 - Fyarl In The Morning (from 'A New Man')
22 - A Really Big Sandbox (from 'Restless')
23 - Spaghetti (from 'Restless')
24 - Body Paint (from 'Restless')
25 - Xander's Nightmare (from 'Restless')
26 - The Tower (from 'The Gift')
27 - Losing Battle (from 'The Gift')
28 - Apocalypse (from 'The Gift')
29 - Sacrifice (alternative version, from 'The Gift')
 
Exact Audio Copy V0.99 prebeta 4 from 23. January 2008

EAC extraction logfile from 22. October 2008, 22:01

Christophe Beck / Buffy The Vampire Slayer - The Score

Used drive : LITE-ON LTR-52327S Adapter: 0 ID: 0

Read mode : SecureUtilize accurate stream : YesDefeat audio cache : YesMake use of C2 pointers : No

Read offset correction : 6Overread into Lead-In and Lead-Out : NoFill up missing offset samples with silence : YesDelete leading and trailing silent blocks : NoNull samples used in CRC calculations : YesUsed interface : Native Win32 interface for Win NT & 2000Gap handling : Appended to previous track

Used output format : User Defined EncoderSelected bitrate : 320 kBit/sQuality : HighAdd ID3 tag : NoCommand line compressor : C:\Program Files\FLAC\flac.exeAdditional command line options : -V -8 -T "artist=%a" -T "title=%t" -T "album=%g" -T "date=%y" -T "tracknumber=%n" -T "genre=%m" %s

TOC of the extracted CD

Track | Start | Length | Start sector | End sector --------------------------------------------------------- 1 | 0:00.00 | 3:56.23 | 0 | 17722 2 | 3:56.23 | 1:43.07 | 17723 | 25454 3 | 5:39.30 | 1:51.44 | 25455 | 33823 4 | 7:30.74 | 0:48.09 | 33824 | 37432 5 | 8:19.08 | 2:13.55 | 37433 | 47462 6 | 10:32.63 | 1:52.12 | 47463 | 55874 7 | 12:25.00 | 1:43.24 | 55875 | 63623 8 | 14:08.24 | 1:11.35 | 63624 | 68983 9 | 15:19.59 | 2:23.03 | 68984 | 79711 10 | 17:42.62 | 2:41.26 | 79712 | 91812 11 | 20:24.13 | 1:55.52 | 91813 | 100489 12 | 22:19.65 | 2:44.48 | 100490 | 112837 13 | 25:04.38 | 1:26.01 | 112838 | 119288 14 | 26:30.39 | 1:07.69 | 119289 | 124382 15 | 27:38.33 | 1:16.70 | 124383 | 130152 16 | 28:55.28 | 1:53.42 | 130153 | 138669 17 | 30:48.70 | 2:39.10 | 138670 | 150604 18 | 33:28.05 | 1:19.22 | 150605 | 156551 19 | 34:47.27 | 4:02.08 | 156552 | 174709 20 | 38:49.35 | 2:37.11 | 174710 | 186495 21 | 41:26.46 | 1:54.44 | 186496 | 195089 22 | 43:21.15 | 1:19.72 | 195090 | 201086 23 | 44:41.12 | 1:17.41 | 201087 | 206902 24 | 45:58.53 | 1:38.15 | 206903 | 214267 25 | 47:36.68 | 1:49.51 | 214268 | 222493 26 | 49:26.44 | 2:06.06 | 222494 | 231949 27 | 51:32.50 | 1:48.26 | 231950 | 240075 28 | 53:21.01 | 2:25.46 | 240076 | 250996 29 | 55:46.47 | 2:09.64 | 250997 | 260735

Track 1

Filename C:\EAC Ripping\Christophe Beck - Buffy The Vampire Slayer - The Score\01 - Massacre (from 'Becoming').wav

Pre-gap length 0:00:02.00

Peak level 94.2 % Track quality 100.0 % Test CRC D626EB30 Copy CRC D626EB30 Track not present in AccurateRip database Copy OK

Track 2

Filename C:\EAC Ripping\Christophe Beck - Buffy The Vampire Slayer - The Score\02 - Angel Waits (from 'Passion').wav

Peak level 87.4 % Track quality 100.0 % Test CRC D873954E Copy CRC D873954E Track not present in AccurateRip database Copy OK

Track 3

Filename C:\EAC Ripping\Christophe Beck - Buffy The Vampire Slayer - The Score\03 - Remembering Jenny (from 'Passion').wav

Peak level 72.6 % Track quality 99.9 % Test CRC 6CF2DBF6 Copy CRC 6CF2DBF6 Track not present in AccurateRip database Copy OK

Track 4

Filename C:\EAC Ripping\Christophe Beck - Buffy The Vampire Slayer - The Score\04 - Twice the Fool (from 'Bewitched, Bothered and Bewildered').wav

Peak level 92.0 % Track quality 100.0 % Test CRC 860EADCA Copy CRC 860EADCA Track not present in AccurateRip database Copy OK

Track 5

Filename C:\EAC Ripping\Christophe Beck - Buffy The Vampire Slayer - The Score\05 - Moment of Happiness (from 'Innocence').wav

Peak level 94.1 % Track quality 100.0 % Test CRC 051FA5A2 Copy CRC 051FA5A2 Track not present in AccurateRip database Copy OK

Track 6

Filename C:\EAC Ripping\Christophe Beck - Buffy The Vampire Slayer - The Score\06 - Loneliness of Six (from 'Lover's Walk').wav

Peak level 94.1 % Track quality 100.0 % Test CRC 950D76E9 Copy CRC 950D76E9 Track not present in AccurateRip database Copy OK

Track 7

Filename C:\EAC Ripping\Christophe Beck - Buffy The Vampire Slayer - The Score\07 - Sugar High (from 'Band Candy').wav

Peak level 94.2 % Track quality 100.0 % Test CRC 37DBA6A2 Copy CRC 37DBA6A2 Track not present in AccurateRip database Copy OK

Track 8

Filename C:\EAC Ripping\Christophe Beck - Buffy The Vampire Slayer - The Score\08 - Tai Chi (from 'Band Candy').wav

Peak level 80.9 % Track quality 100.0 % Test CRC 621D87C7 Copy CRC 621D87C7 Track not present in AccurateRip database Copy OK

Track 9

Filename C:\EAC Ripping\Christophe Beck - Buffy The Vampire Slayer - The Score\09 - Kralik's House (from 'Helpless').wav

Peak level 94.2 % Track quality 100.0 % Test CRC 6B0F366A Copy CRC 6B0F366A Track not present in AccurateRip database Copy OK

Track 10

Filename C:\EAC Ripping\Christophe Beck - Buffy The Vampire Slayer - The Score\10 - Magic Snow Music (from 'Amends').wav

Peak level 85.7 % Track quality 99.9 % Test CRC F89C9471 Copy CRC F89C9471 Track not present in AccurateRip database Copy OK

Track 11

Filename C:\EAC Ripping\Christophe Beck - Buffy The Vampire Slayer - The Score\11 - Slayer's Elegy (from 'The Wish').wav

Peak level 94.1 % Track quality 100.0 % Test CRC 0E607DA1 Copy CRC 0E607DA1 Track not present in AccurateRip database Copy OK

Track 12

Filename C:\EAC Ripping\Christophe Beck - Buffy The Vampire Slayer - The Score\12 - Faith's End (from 'Graduation Day').wav

Peak level 94.2 % Track quality 100.0 % Test CRC 6358EF03 Copy CRC 6358EF03 Track not present in AccurateRip database Copy OK

Track 13

Filename C:\EAC Ripping\Christophe Beck - Buffy The Vampire Slayer - The Score\13 - Drink Me (from 'Graduation Day').wav

Peak level 94.2 % Track quality 99.8 % Test CRC AED9DAFC Copy CRC AED9DAFC Track not present in AccurateRip database Copy OK

Track 14

Filename C:\EAC Ripping\Christophe Beck - Buffy The Vampire Slayer - The Score\14 - One Last Moment (from 'Graduation Day').wav

Peak level 55.7 % Track quality 100.0 % Test CRC 03A3F7B0 Copy CRC 03A3F7B0 Track not present in AccurateRip database Copy OK

Track 15

Filename C:\EAC Ripping\Christophe Beck - Buffy The Vampire Slayer - The Score\15 - Haunted (from 'Fear Itself').wav

Peak level 94.2 % Track quality 100.0 % Test CRC E6837AD9 Copy CRC E6837AD9 Track not present in AccurateRip database Copy OK

Track 16

Filename C:\EAC Ripping\Christophe Beck - Buffy The Vampire Slayer - The Score\16 - From the Grave (from 'This Year's Girl').wav

Peak level 91.5 % Track quality 99.9 % Test CRC D2031E3A Copy CRC D2031E3A Track not present in AccurateRip database Copy OK

Track 17

Filename C:\EAC Ripping\Christophe Beck - Buffy The Vampire Slayer - The Score\17 - Demon Got Your Tongue (from 'Hush').wav

Peak level 94.2 % Track quality 100.0 % Test CRC 92288D47 Copy CRC 92288D47 Track not present in AccurateRip database Copy OK

Track 18

Filename C:\EAC Ripping\Christophe Beck - Buffy The Vampire Slayer - The Score\18 - Golf Claps (from 'Hush').wav

Peak level 94.1 % Track quality 100.0 % Test CRC 7DB005E7 Copy CRC 7DB005E7 Track not present in AccurateRip database Copy OK

Track 19

Filename C:\EAC Ripping\Christophe Beck - Buffy The Vampire Slayer - The Score\19 - The Princess Screams (from 'Hush').wav

Peak level 94.2 % Track quality 100.0 % Test CRC DB9D4768 Copy CRC DB9D4768 Track not present in AccurateRip database Copy OK

Track 20

Filename C:\EAC Ripping\Christophe Beck - Buffy The Vampire Slayer - The Score\20 - Spellbound (from 'Who Are You ').wav

Peak level 94.1 % Track quality 100.0 % Test CRC 4CA10F2B Copy CRC 4CA10F2B Track not present in AccurateRip database Copy OK

Track 21

Filename C:\EAC Ripping\Christophe Beck - Buffy The Vampire Slayer - The Score\21 - Fyarl In The Morning (from 'A New Man').wav

Peak level 94.2 % Track quality 100.0 % Test CRC EE8F6AF6 Copy CRC EE8F6AF6 Track not present in AccurateRip database Copy OK

Track 22

Filename C:\EAC Ripping\Christophe Beck - Buffy The Vampire Slayer - The Score\22 - A Really Big Sandbox (from 'Restless').wav

Peak level 61.9 % Track quality 100.0 % Test CRC 58C0F73B Copy CRC 58C0F73B Track not present in AccurateRip database Copy OK

Track 23

Filename C:\EAC Ripping\Christophe Beck - Buffy The Vampire Slayer - The Score\23 - Spaghetti (from 'Restless').wav

Peak level 94.2 % Track quality 100.0 % Test CRC E948F8E3 Copy CRC E948F8E3 Track not present in AccurateRip database Copy OK

Track 24

Filename C:\EAC Ripping\Christophe Beck - Buffy The Vampire Slayer - The Score\24 - Body Paint (from 'Restless').wav

Peak level 82.2 % Track quality 100.0 % Test CRC 4DAD0955 Copy CRC 4DAD0955 Track not present in AccurateRip database Copy OK

Track 25

Filename C:\EAC Ripping\Christophe Beck - Buffy The Vampire Slayer - The Score\25 - Xander's Nightmare (from 'Restless').wav

Peak level 94.2 % Track quality 100.0 % Test CRC FFACD364 Copy CRC FFACD364 Track not present in AccurateRip database Copy OK

Track 26

Filename C:\EAC Ripping\Christophe Beck - Buffy The Vampire Slayer - The Score\26 - The Tower (from 'The Gift').wav

Peak level 94.2 % Track quality 100.0 % Test CRC 6DD77660 Copy CRC 6DD77660 Track not present in AccurateRip database Copy OK

Track 27

Filename C:\EAC Ripping\Christophe Beck - Buffy The Vampire Slayer - The Score\27 - Losing Battle (from 'The Gift').wav

Peak level 94.2 % Track quality 100.0 % Test CRC 3AEF5A91 Copy CRC 3AEF5A91 Track not present in AccurateRip database Copy OK

Track 28

Filename C:\EAC Ripping\Christophe Beck - Buffy The Vampire Slayer - The Score\28 - Apocalypse (from 'The Gift').wav

Peak level 94.2 % Track quality 100.0 % Test CRC 37183B54 Copy CRC 37183B54 Track not present in AccurateRip database Copy OK

Track 29

Filename C:\EAC Ripping\Christophe Beck - Buffy The Vampire Slayer - The Score\29 - Sacrifice (alternative version, from 'The Gift').wav

Peak level 71.8 % Track quality 99.9 % Test CRC 8B15CEAB Copy CRC 8B15CEAB Track not present in AccurateRip database Copy OK

None of the tracks are present in the AccurateRip database

No errors occurred

End of status report
 
REM GENRE ScoreREM DATE 2008REM COMMENT ExactAudioCopy v0.99pb4PERFORMER "Christophe Beck"TITLE "Buffy the Vampire Slayer - The Score"FILE "01 - Massacre (from 'Becoming').flac" WAVE TRACK 01 AUDIO TITLE "Massacre (from 'Becoming')" PERFORMER "Christophe Beck" INDEX 01 00:00:00FILE "02 - Angel Waits (from 'Passion').flac" WAVE TRACK 02 AUDIO TITLE "Angel Waits (from 'Passion')" PERFORMER "Christophe Beck" INDEX 01 00:00:00FILE "03 - Remembering Jenny (from 'Passion').flac" WAVE TRACK 03 AUDIO TITLE "Remembering Jenny (from 'Passion')" PERFORMER "Christophe Beck" INDEX 01 00:00:00FILE "04 - Twice the Fool (from 'Bewitched, Bothered and Bewildered').flac" WAVE TRACK 04 AUDIO TITLE "Twice the Fool (from 'Bewitched, Bothered and Bewildered')" PERFORMER "Christophe Beck" INDEX 01 00:00:00FILE "05 - Moment of Happiness (from 'Innocence').flac" WAVE TRACK 05 AUDIO TITLE "Moment of Happiness (from 'Innocence')" PERFORMER "Christophe Beck" INDEX 01 00:00:00FILE "06 - Loneliness of Six (from 'Lover's Walk').flac" WAVE TRACK 06 AUDIO TITLE "Loneliness of Six (from 'Lover's Walk')" PERFORMER "Christophe Beck" INDEX 01 00:00:00FILE "07 - Sugar High (from 'Band Candy').flac" WAVE TRACK 07 AUDIO TITLE "Sugar High (from 'Band Candy')" PERFORMER "Christophe Beck" INDEX 01 00:00:00FILE "08 - Tai Chi (from 'Band Candy').flac" WAVE TRACK 08 AUDIO TITLE "Tai Chi (from 'Band Candy')" PERFORMER "Christophe Beck" INDEX 01 00:00:00FILE "09 - Kralik's House (from 'Helpless').flac" WAVE TRACK 09 AUDIO TITLE "Kralik's House (from 'Helpless')" PERFORMER "Christophe Beck" INDEX 01 00:00:00FILE "10 - Magic Snow Music (from 'Amends').flac" WAVE TRACK 10 AUDIO TITLE "Magic Snow Music (from 'Amends')" PERFORMER "Christophe Beck" INDEX 01 00:00:00FILE "11 - Slayer's Elegy (from 'The Wish').flac" WAVE TRACK 11 AUDIO TITLE "Slayer's Elegy (from 'The Wish')" PERFORMER "Christophe Beck" INDEX 01 00:00:00FILE "12 - Faith's End (from 'Graduation Day').flac" WAVE TRACK 12 AUDIO TITLE "Faith's End (from 'Graduation Day')" PERFORMER "Christophe Beck" INDEX 01 00:00:00FILE "13 - Drink Me (from 'Graduation Day').flac" WAVE TRACK 13 AUDIO TITLE "Drink Me (from 'Graduation Day')" PERFORMER "Christophe Beck" INDEX 01 00:00:00FILE "14 - One Last Moment (from 'Graduation Day').flac" WAVE TRACK 14 AUDIO TITLE "One Last Moment (from 'Graduation Day')" PERFORMER "Christophe Beck" INDEX 01 00:00:00FILE "15 - Haunted (from 'Fear Itself').flac" WAVE TRACK 15 AUDIO TITLE "Haunted (from 'Fear Itself')" PERFORMER "Christophe Beck" INDEX 01 00:00:00FILE "16 - From the Grave (from 'This Year's Girl').flac" WAVE TRACK 16 AUDIO TITLE "From the Grave (from 'This Year's Girl')" PERFORMER "Christophe Beck" INDEX 01 00:00:00FILE "17 - Demon Got Your Tongue (from 'Hush').flac" WAVE TRACK 17 AUDIO TITLE "Demon Got Your Tongue (from 'Hush')" PERFORMER "Christophe Beck" INDEX 01 00:00:00FILE "18 - Golf Claps (from 'Hush').flac" WAVE TRACK 18 AUDIO TITLE "Golf Claps (from 'Hush')" PERFORMER "Christophe Beck" INDEX 01 00:00:00FILE "19 - The Princess Screams (from 'Hush').flac" WAVE TRACK 19 AUDIO TITLE "The Princess Screams (from 'Hush')" PERFORMER "Christophe Beck" INDEX 01 00:00:00FILE "20 - Spellbound (from 'Who Are You').flac" WAVE TRACK 20 AUDIO TITLE "Spellbound (from 'Who Are You')" PERFORMER "Christophe Beck" INDEX 01 00:00:00FILE "21 - Fyarl In The Morning (from 'A New Man').flac" WAVE TRACK 21 AUDIO TITLE "Fyarl In The Morning (from 'A New Man')" PERFORMER "Christophe Beck" INDEX 01 00:00:00FILE "22 - A Really Big Sandbox (from 'Restless').flac" WAVE TRACK 22 AUDIO TITLE "A Really Big Sandbox (from 'Restless')" PERFORMER "Christophe Beck" INDEX 01 00:00:00FILE "23 - Spaghetti (from 'Restless').flac" WAVE TRACK 23 AUDIO TITLE "Spaghetti (from 'Restless')" PERFORMER "Christophe Beck" INDEX 01 00:00:00FILE "24 - Body Paint (from 'Restless').flac" WAVE TRACK 24 AUDIO TITLE "Body Paint (from 'Restless')" PERFORMER "Christophe Beck" INDEX 01 00:00:00FILE "25 - Xander's Nightmare (from 'Restless').flac" WAVE TRACK 25 AUDIO TITLE "Xander's Nightmare (from 'Restless')" PERFORMER "Christophe Beck" INDEX 01 00:00:00FILE "26 - The Tower (from 'The Gift').flac" WAVE TRACK 26 AUDIO TITLE "The Tower (from 'The Gift')" PERFORMER "Christophe Beck" INDEX 01 00:00:00FILE "27 - Losing Battle (from 'The Gift').flac" WAVE TRACK 27 AUDIO TITLE "Losing Battle (from 'The Gift')" PERFORMER "Christophe Beck" INDEX 01 00:00:00FILE "28 - Apocalypse (from 'The Gift').flac" WAVE TRACK 28 AUDIO TITLE "Apocalypse (from 'The Gift')" PERFORMER "Christophe Beck" INDEX 01 00:00:00FILE "29 - Sacrifice (alternative version, from 'The Gift').flac" WAVE TRACK 29 AUDIO TITLE "Sacrifice (alternative version, from 'The Gift')" PERFORMER "Christophe Beck" INDEX 01 00:00:00


Трекер:  [ 19-Дек-2010 16:49 ]

  

Скачать .torrent

Размер .torrent файла 26 KB


Размер: 2.11 GB
Хэш (hash) релиза: ced364299487a73c1886ad8ad7e3215030873aef

bot

Топик был перенесен в форум Саундтреки к фильмам и мультфильмам (lossless)

Перенес AqvaGen

Хотите добавить комментарий к записи скачать торрент Баффи: Истребительница вампиров + Ангел Buffy: The Vampire Slayer

!Обратная связь