Скачать через торрент музыку Сиеста Siesta by Miles Davis&Marcus Miller - 1987, APE бесплатно без регистрации torrent

Если у вас наблюдаются проблемы со скриншотами, переходом по ссылками, скачиванием торрентов - проблемы в блокировщике рекламы AdBlock. #хорошегоДня!


Статистика раздачи
Размер:  170 MB   |    Зарегистрирован:  6 лет 5 месяцев   |    .torrent скачан:  38 раз   |   
Раздают:  1  
   
Загрузка...
 
Автор Сообщение

Galfimbul

avatar Galfimbul


Miles Davis&Marcus Miller - Siesta

Страна: USA
Жанр: jazz, soundtrack, fusion
Год выпуска: 1987
Формат: APE (image + .cue)
Битрейт аудио: lossless
Продолжительность: 38:52
Трэклист:
01 - Lost In Madrid Part 1
02 - Siesta/Kitt`s Kiss/Lost In Madrid Part 2
03 - Theme For Augustine/Wind/Seduction/Kiss
04 - Submission
05 - Lost In Madrid Part 3
06 - Conchita/Lament
07 - Lost In Madrid Part 4/Rat Dance/The Call
08 - Claire/Lost In Madrid Part 5
09 - Afterglow
10 - Los Feliz
Доп. информация: Саундтрек к фильму "Сиеста".
Фильм, признаться, на любителя, но саундтрек - просто мечта.
Exact Audio Copy V0.99 prebeta 3 from 28. July 2007

Отчёт EAC об извлечении, выполненном 8. марта 2008, 22:42

Miles Davis&Marcus Miller / Siesta

Дисковод: _NEC DVD_RW ND-3500AG Adapter: 3 ID: 0

Режим чтения : Достоверность
Использование точного потока : Да
Отключение кэша аудио : Да
Использование указателей C2 : Нет

Коррекция смещения при чтении : 0
Способность читать области Lead-in и Lead-out : Нет
Заполнение пропущенных сэмплов тишиной : Да
Удаление блоков с тишиной в начале и конце : Нет
При вычислениях CRC использовались нулевые сэмплы : Да
Интерфейс : Установленный внешний ASPI-интерфейс

Выходной формат : Внутренние WAV-операции
Формат сэмплов : 44.100 Гц; 16 бит; стерео

TOC извлечённого CD

Трек | Старт | Длительность | Начальный сектор | Конечный сектор
---------------------------------------------------------------------
1 | 0:00.33 | 1:48.55 | 33 | 8187
2 | 1:49.13 | 6:54.57 | 8188 | 39294
3 | 8:43.70 | 6:33.45 | 39295 | 68814
4 | 15:17.40 | 2:32.03 | 68815 | 80217
5 | 17:49.43 | 0:49.65 | 80218 | 83957
6 | 18:39.33 | 6:44.00 | 83958 | 114257
7 | 25:23.33 | 1:41.52 | 114258 | 121884
8 | 27:05.10 | 4:33.45 | 121885 | 142404
9 | 31:38.55 | 1:41.08 | 142405 | 149987
10 | 33:19.63 | 4:35.17 | 149988 | 170629

Характеристики диапазона извлечения и сообщения об ошибках

Выбранный диапазон

Имя файла F:\Lossless\Miles Davis&Marcus Miller - Siesta\Miles Davis&Marcus Miller - Siesta.wav

Пиковый уровень 77.7 %
Качество диапазона 100.0 %
CRC копии 0B87592A
Копирование... OK

Ошибок не произошло

Конец отчёта


Трекер:  [ 08-Июл-2011 17:27 ]

  

Скачать .torrent

Размер .torrent файла 14 KB


Размер: 170 MB
Хэш (hash) релиза: de896b372d311f6092af178c4cf1bf407b767015

Еще никто не оставлял запись к записи скачать торрент Сиеста Siesta by Miles Davis&Marcus Miller - 1987, APE . Будь первым!

!Обратная связь