Скачать через торрент музыку Сонатина Sonatine бесплатно без регистрации torrent

Если у вас наблюдаются проблемы со скриншотами, переходом по ссылками, скачиванием торрентов - проблемы в блокировщике рекламы AdBlock. #хорошегоДня!


Статистика раздачи
Размер:  260 MB   |    Зарегистрирован:  6 лет 5 месяцев   |    .torrent скачан:  37 раз   |   
Раздают:  1  
   
Загрузка...
 
Автор Сообщение

Galfimbul

avatar Galfimbul


Сонатина / Sonatine

Жанр: Score
Год выпуска диска: 1999
Производитель диска: France - Milan Records 198 347-2
Аудио кодек: WAVPack
Тип рипа: tracks+.cue
Битрейт аудио: lossless
Продолжительность: 00:51:11
Трэклист:
1. Sonatine I - Act Of Violence (03:40)
2. Light And Darkness (06:49)
3. Play On The Sands (04:43)
4. Rain After That (00:26)
5. A On The Fullmoon Of Mystery (02:28)
6. Into A Trance (03:17)
7. Sonatine II - In The Beginning (06:34)
8. Magis Mushroom (02:51)
9. Eye Witness (05:27)
10. Runaway Trip (01:32)
11. Mцbius Band (04:46)
12. Die Out Of Memories (02:53)
13. See You… (01:58)
14. Sonatine III - Be Over (03:47)

+covers 600 dpi
 
Exact Audio Copy V0.99 prebeta 5 from 4. May 2009

Отчёт EAC об извлечении, выполненном 6. июня 2010, 14:15

Joe Hisaishi / Sonatine

Дисковод: Optiarc DVD RW AD-7201A Adapter: 1 ID: 0

Режим чтения : ДостоверностьИспользование точного потока : ДаОтключение кэша аудио : ДаИспользование указателей C2 : Нет

Коррекция смещения при чтении : 48Способность читать области Lead-in и Lead-out : НетЗаполнение пропущенных сэмплов тишиной : ДаУдаление блоков с тишиной в начале и конце : НетПри вычислениях CRC использовались нулевые сэмплы : ДаИнтерфейс : Установленный внешний ASPI-интерфейсОбработка зазоров : Добавлено к предыдущему треку

Выходной формат : Пользовательский кодировщикВыбранный битрейт : 1024 kBit/sКачество : ВысокийДобавление ID3-тэга : НетУтилита сжатия : C:\wavpack-4.60.1\wavpack.exeДополнительные параметры : -hmx3 -w "Year=%y" -w "Genre=%m" %s %d

TOC извлечённого CD

Трек | Старт | Длительность | Начальный сектор | Конечный сектор --------------------------------------------------------------------- 1 | 0:00.32 | 3:40.73 | 32 | 16604 2 | 3:41.30 | 6:49.20 | 16605 | 47299 3 | 10:30.50 | 4:43.70 | 47300 | 68594 4 | 15:14.45 | 0:26.60 | 68595 | 70604 5 | 15:41.30 | 2:28.60 | 70605 | 81764 6 | 18:10.15 | 3:17.67 | 81765 | 96606 7 | 21:28.07 | 6:34.35 | 96607 | 126191 8 | 28:02.42 | 2:51.53 | 126192 | 139069 9 | 30:54.20 | 5:27.10 | 139070 | 163604 10 | 36:21.30 | 1:32.37 | 163605 | 170541 11 | 37:53.67 | 4:46.35 | 170542 | 192026 12 | 42:40.27 | 2:53.55 | 192027 | 205056 13 | 45:34.07 | 1:58.05 | 205057 | 213911 14 | 47:32.12 | 3:47.08 | 213912 | 230944

Трек 1

Имя файла E:\torrent\Sonatine_OST\OST_Sonatine\Joe Hisaishi - Sonatine - 01. Sonatine 1 (Act of Violence).wav

Длина предзазора 0:00:02.32

Пиковый уровень 99.6 % Качество трека 100.0 % CRC копии 25677DBB Точное извлечение (достоверность 2) [D0A53F9B] Копирование... OK

Трек 2

Имя файла E:\torrent\Sonatine_OST\OST_Sonatine\Joe Hisaishi - Sonatine - 02. Light and Darkness.wav

Пиковый уровень 84.7 % Качество трека 100.0 % CRC копии 01943B2E Точное извлечение (достоверность 2) [FB69EFAF] Копирование... OK

Трек 3

Имя файла E:\torrent\Sonatine_OST\OST_Sonatine\Joe Hisaishi - Sonatine - 03. Play on the Sands.wav

Пиковый уровень 98.7 % Качество трека 99.9 % CRC копии 27D2B943 Точное извлечение (достоверность 2) [BC45D736] Копирование... OK

Трек 4

Имя файла E:\torrent\Sonatine_OST\OST_Sonatine\Joe Hisaishi - Sonatine - 04. Rain After That.wav

Пиковый уровень 42.3 % Качество трека 100.0 % CRC копии A5E60EA5 Точное извлечение (достоверность 2) [92CDF014] Копирование... OK

Трек 5

Имя файла E:\torrent\Sonatine_OST\OST_Sonatine\Joe Hisaishi - Sonatine - 05. A on the Fullmoon of Mystery.wav

Пиковый уровень 90.2 % Качество трека 100.0 % CRC копии DB3771E8 Точное извлечение (достоверность 2) [41A9474C] Копирование... OK

Трек 6

Имя файла E:\torrent\Sonatine_OST\OST_Sonatine\Joe Hisaishi - Sonatine - 06. Into a Trance.wav

Пиковый уровень 85.8 % Качество трека 99.9 % CRC копии C77238DA Точное извлечение (достоверность 2) [2ACE7547] Копирование... OK

Трек 7

Имя файла E:\torrent\Sonatine_OST\OST_Sonatine\Joe Hisaishi - Sonatine - 07. Sonatine 2 (In the Beginning).wav

Пиковый уровень 67.1 % Качество трека 99.9 % CRC копии 5CE7D17A Точное извлечение (достоверность 2) [F5099D67] Копирование... OK

Трек 8

Имя файла E:\torrent\Sonatine_OST\OST_Sonatine\Joe Hisaishi - Sonatine - 08. Magic Mushroom.wav

Пиковый уровень 99.6 % Качество трека 100.0 % CRC копии A38C6B60 Точное извлечение (достоверность 2) [68E684E7] Копирование... OK

Трек 9

Имя файла E:\torrent\Sonatine_OST\OST_Sonatine\Joe Hisaishi - Sonatine - 09. Eye Witness.wav

Пиковый уровень 97.3 % Качество трека 100.0 % CRC копии 54DDD9FA Точное извлечение (достоверность 2) [321C4C27] Копирование... OK

Трек 10

Имя файла E:\torrent\Sonatine_OST\OST_Sonatine\Joe Hisaishi - Sonatine - 10. Runaway Trip.wav

Пиковый уровень 61.5 % Качество трека 100.0 % CRC копии DFA05D14 Точное извлечение (достоверность 2) [6B313F26] Копирование... OK

Трек 11

Имя файла E:\torrent\Sonatine_OST\OST_Sonatine\Joe Hisaishi - Sonatine - 11. Mцbius Band.wav

Пиковый уровень 80.9 % Качество трека 100.0 % CRC копии E0C6FE8D Точное извлечение (достоверность 2) [750F4262] Копирование... OK

Трек 12

Имя файла E:\torrent\Sonatine_OST\OST_Sonatine\Joe Hisaishi - Sonatine - 12. Die Out of Memories.wav

Пиковый уровень 69.0 % Качество трека 100.0 % CRC копии 8055F6A9 Точное извлечение (достоверность 2) [76FBC76C] Копирование... OK

Трек 13

Имя файла E:\torrent\Sonatine_OST\OST_Sonatine\Joe Hisaishi - Sonatine - 13. See You....wav

Пиковый уровень 36.8 % Качество трека 100.0 % CRC копии 6CBBD5A0 Точное извлечение (достоверность 2) [D52F80FD] Копирование... OK

Трек 14

Имя файла E:\torrent\Sonatine_OST\OST_Sonatine\Joe Hisaishi - Sonatine - 14. Sonatine 3 (Be Over).wav

Пиковый уровень 99.6 % Качество трека 100.0 % CRC копии 229E0A4F Точное извлечение (достоверность 2) [0CE2B57E] Копирование... OK

Все треки извлечены точно

Ошибок не произошло

Конец отчёта
 
REM GENRE SoundtrackREM DATE 1993REM DISCID C50C070EREM COMMENT "ExactAudioCopy v0.99pb5"PERFORMER "Joe Hisaishi"TITLE "Sonatine"FILE "Joe Hisaishi - Sonatine - 01. Sonatine 1 (Act of Violence).wav" WAVE TRACK 01 AUDIO TITLE "Sonatine 1 (Act of Violence)" PERFORMER "Joe Hisaishi" PREGAP 00:00:32 INDEX 01 00:00:00FILE "Joe Hisaishi - Sonatine - 02. Light and Darkness.wav" WAVE TRACK 02 AUDIO TITLE "Light and Darkness" PERFORMER "Joe Hisaishi" INDEX 01 00:00:00FILE "Joe Hisaishi - Sonatine - 03. Play on the Sands.wav" WAVE TRACK 03 AUDIO TITLE "Play on the Sands" PERFORMER "Joe Hisaishi" INDEX 01 00:00:00FILE "Joe Hisaishi - Sonatine - 04. Rain After That.wav" WAVE TRACK 04 AUDIO TITLE "Rain After That" PERFORMER "Joe Hisaishi" INDEX 01 00:00:00FILE "Joe Hisaishi - Sonatine - 05. A on the Fullmoon of Mystery.wav" WAVE TRACK 05 AUDIO TITLE "A on the Fullmoon of Mystery" PERFORMER "Joe Hisaishi" INDEX 01 00:00:00FILE "Joe Hisaishi - Sonatine - 06. Into a Trance.wav" WAVE TRACK 06 AUDIO TITLE "Into a Trance" PERFORMER "Joe Hisaishi" INDEX 01 00:00:00FILE "Joe Hisaishi - Sonatine - 07. Sonatine 2 (In the Beginning).wav" WAVE TRACK 07 AUDIO TITLE "Sonatine 2 (In the Beginning)" PERFORMER "Joe Hisaishi" INDEX 01 00:00:00FILE "Joe Hisaishi - Sonatine - 08. Magic Mushroom.wav" WAVE TRACK 08 AUDIO TITLE "Magic Mushroom" PERFORMER "Joe Hisaishi" INDEX 01 00:00:00FILE "Joe Hisaishi - Sonatine - 09. Eye Witness.wav" WAVE TRACK 09 AUDIO TITLE "Eye Witness" PERFORMER "Joe Hisaishi" INDEX 01 00:00:00FILE "Joe Hisaishi - Sonatine - 10. Runaway Trip.wav" WAVE TRACK 10 AUDIO TITLE "Runaway Trip" PERFORMER "Joe Hisaishi" INDEX 01 00:00:00FILE "Joe Hisaishi - Sonatine - 11. Mцbius Band.wav" WAVE TRACK 11 AUDIO TITLE "Mцbius Band" PERFORMER "Joe Hisaishi" INDEX 01 00:00:00FILE "Joe Hisaishi - Sonatine - 12. Die Out of Memories.wav" WAVE TRACK 12 AUDIO TITLE "Die Out of Memories" PERFORMER "Joe Hisaishi" INDEX 01 00:00:00FILE "Joe Hisaishi - Sonatine - 13. See You....wav" WAVE TRACK 13 AUDIO TITLE "See You..." PERFORMER "Joe Hisaishi" INDEX 01 00:00:00FILE "Joe Hisaishi - Sonatine - 14. Sonatine 3 (Be Over).wav" WAVE TRACK 14 AUDIO TITLE "Sonatine 3 (Be Over)" PERFORMER "Joe Hisaishi" INDEX 01 00:00:00


Трекер:  [ 08-Июл-2011 17:26 ]

  

Скачать .torrent

Размер .torrent файла 12 KB


Размер: 260 MB
Хэш (hash) релиза: 2621d57c549dfe0c24cc4167c1dd27e04854c822

Еще никто не оставлял запись к записи скачать торрент Сонатина Sonatine . Будь первым!

!Обратная связь