Скачать через торрент музыку VA - Walt Disney Records Presents: Love Hits - 1998, FLAC бесплатно без регистрации torrent

Если у вас наблюдаются проблемы со скриншотами, переходом по ссылками, скачиванием торрентов - проблемы в блокировщике рекламы AdBlock. #хорошегоДня!


Статистика раздачи
Размер:  448 MB   |    Зарегистрирован:  6 лет 5 месяцев   |    .torrent скачан:  41 раз   |   
Раздают:  1  
   
Загрузка...
 
Автор Сообщение

Galfimbul

avatar Galfimbul


Various Artists - Walt Disney Records Presents: Love Hits

Жанр: Soundtrack, Pop
Год выпуска диска: 1998
Производитель диска: Thailand
Аудио кодек: FLAC
Тип рипа: tracks+.cue
Битрейт аудио: lossless
Продолжительность: 01:12:10
Источник: оригинальный диск

Трэклист:
01. Elton John / Can You Feel The Love Tonight [0:04:02.72]
02. Vanessa Williams / Colours Of The Wind [0:04:19.35]
03. Micheal Bolton / Go The Distance [0:04:43.50]
04. Regina Belle, Peabo Bryson / A Whole New World [0:04:07.40]
05. Boyzone / Shooting Star [0:04:13.58]
06. Peter Andre / Kiss The Girl [0:02:55.37]
07. Eternal / When You Wish Upon A Star [0:02:49.15]
08. Alan Menken / God Bless Us Everyone [0:03:36.25]
09. Jennifer Warnes / Cold Enough To Snow [0:02:43.63]
10. CoCo Lee / Reflections [0:03:35.50]
11. All 4 One / Someday [0:04:20.42]
12. Shanice, Jon Secada / If I Never Knew You [0:04:14.35]
13. Randy Newman, Lyle Lovett / You've Got A Friend In Me [0:02:42.73]
14. Alan Menken, Lori Beecham / A Place Called Home [0:03:30.60]
15. Elton John / I Just Can't Wait To Be King [0:03:37.45]
16. Belinda Carlisle / I Won't Say (I'm In Love) [0:03:19.20]
17. 98 Degrees, Stevie Wonder / True To Your Heart [0:04:17.35]
18. Elton John / Circle Of Life [0:04:53.00]
19. Celine Dion, Peabo Bryson / Beauty & The Beast [0:04:05.35]


Все обложки не хватает у меня. Я жалею, что не может просмотреть или найти обложки для вас
Но все песни очень мелодичны. !!!
 
Exact Audio Copy V0.99 prebeta 5 from 4. May 2009

EAC extraction logfile from 23. April 2010, 16:36

Various / Walt Disney Records Presents Love Hits

Used drive : PIONEER DVD-RW DVR-118L Adapter: 3 ID: 0

Read mode : SecureUtilize accurate stream : YesDefeat audio cache : YesMake use of C2 pointers : No

Read offset correction : 6Overread into Lead-In and Lead-Out : NoFill up missing offset samples with silence : YesDelete leading and trailing silent blocks : NoNull samples used in CRC calculations : NoUsed interface : Native Win32 interface for Win NT & 2000Gap handling : Appended to previous track

Used output format : Internal WAV RoutinesSample format : 44.100 Hz; 16 Bit; Stereo

TOC of the extracted CD

Track | Start | Length | Start sector | End sector --------------------------------------------------------- 1 | 0:00.00 | 4:02.72 | 0 | 18221 2 | 4:02.72 | 4:19.35 | 18222 | 37681 3 | 8:22.32 | 4:43.50 | 37682 | 58956 4 | 13:06.07 | 4:07.40 | 58957 | 77521 5 | 17:13.47 | 4:13.58 | 77522 | 96554 6 | 21:27.30 | 2:55.37 | 96555 | 109716 7 | 24:22.67 | 2:49.15 | 109717 | 122406 8 | 27:12.07 | 3:36.25 | 122407 | 138631 9 | 30:48.32 | 2:43.63 | 138632 | 150919 10 | 33:32.20 | 3:35.50 | 150920 | 167094 11 | 37:07.70 | 4:20.42 | 167095 | 186636 12 | 41:28.37 | 4:14.35 | 186637 | 205721 13 | 45:42.72 | 2:42.73 | 205722 | 217944 14 | 48:25.70 | 3:30.60 | 217945 | 233754 15 | 51:56.55 | 3:37.45 | 233755 | 250074 16 | 55:34.25 | 3:19.20 | 250075 | 265019 17 | 58:53.45 | 4:17.35 | 265020 | 284329 18 | 63:11.05 | 4:53.00 | 284330 | 306304 19 | 68:04.05 | 4:05.35 | 306305 | 324714

Track 1

Filename C:\Audio Creator Music Library\Various 01 Can You Feel The Love Tonight.wav

Pre-gap length 0:00:02.00

Peak level 100.0 % Track quality 100.0 % Test CRC 5998D362 Copy CRC 5998D362 Track not present in AccurateRip database Copy OK

Track 2

Filename C:\Audio Creator Music Library\Various 02 Colours Of The Wind.wav

Pre-gap length 0:00:01.67

Peak level 100.0 % Track quality 100.0 % Test CRC 7AFB3316 Copy CRC 7AFB3316 Track not present in AccurateRip database Copy OK

Track 3

Filename C:\Audio Creator Music Library\Various 03 Go The Distance.wav

Pre-gap length 0:00:01.67

Peak level 100.0 % Track quality 100.0 % Test CRC 2F893A63 Copy CRC 2F893A63 Track not present in AccurateRip database Copy OK

Track 4

Filename C:\Audio Creator Music Library\Various 04 A Whole New World.wav

Pre-gap length 0:00:01.67

Peak level 100.0 % Track quality 100.0 % Test CRC 120531EA Copy CRC 120531EA Track not present in AccurateRip database Copy OK

Track 5

Filename C:\Audio Creator Music Library\Various 05 Shooting Star.wav

Pre-gap length 0:00:01.67

Peak level 98.6 % Track quality 100.0 % Test CRC F3F65957 Copy CRC F3F65957 Track not present in AccurateRip database Copy OK

Track 6

Filename C:\Audio Creator Music Library\Various 06 Kiss The Girl.wav

Pre-gap length 0:00:01.68

Peak level 100.0 % Track quality 100.0 % Test CRC 140CA487 Copy CRC 140CA487 Track not present in AccurateRip database Copy OK

Track 7

Filename C:\Audio Creator Music Library\Various 07 When You Wish Upon A Star.wav

Pre-gap length 0:00:01.67

Peak level 96.6 % Track quality 100.0 % Test CRC 55D89B26 Copy CRC 55D89B26 Track not present in AccurateRip database Copy OK

Track 8

Filename C:\Audio Creator Music Library\Various 08 God Bless Us Everyone.wav

Pre-gap length 0:00:01.67

Peak level 100.0 % Track quality 100.0 % Test CRC 198BD44A Copy CRC 198BD44A Track not present in AccurateRip database Copy OK

Track 9

Filename C:\Audio Creator Music Library\Various 09 Cold Enough To Snow.wav

Pre-gap length 0:00:01.67

Peak level 100.0 % Track quality 100.0 % Test CRC 8D5DD64D Copy CRC 8D5DD64D Track not present in AccurateRip database Copy OK

Track 10

Filename C:\Audio Creator Music Library\Various 10 Reflections.wav

Pre-gap length 0:00:01.68

Peak level 97.5 % Track quality 100.0 % Test CRC 33DADD42 Copy CRC 33DADD42 Track not present in AccurateRip database Copy OK

Track 11

Filename C:\Audio Creator Music Library\Various 11 Someday.wav

Pre-gap length 0:00:01.68

Peak level 100.0 % Track quality 100.0 % Test CRC 455E5FB6 Copy CRC 455E5FB6 Track not present in AccurateRip database Copy OK

Track 12

Filename C:\Audio Creator Music Library\Various 12 If I Never Knew You.wav

Pre-gap length 0:00:01.67

Peak level 100.0 % Track quality 100.0 % Test CRC CB2D7D31 Copy CRC CB2D7D31 Track not present in AccurateRip database Copy OK

Track 13

Filename C:\Audio Creator Music Library\Various 13 You've Got A Friend In Me.wav

Pre-gap length 0:00:01.67

Peak level 86.1 % Track quality 100.0 % Test CRC 46F45BFD Copy CRC 46F45BFD Track not present in AccurateRip database Copy OK

Track 14

Filename C:\Audio Creator Music Library\Various 14 A Place Called Home.wav

Pre-gap length 0:00:01.68

Peak level 100.0 % Track quality 100.0 % Test CRC AF0C8559 Copy CRC AF0C8559 Track not present in AccurateRip database Copy OK

Track 15

Filename C:\Audio Creator Music Library\Various 15 I Just Can't Wait To Be King.wav

Pre-gap length 0:00:01.68

Peak level 100.0 % Track quality 100.0 % Test CRC BC879ABD Copy CRC BC879ABD Track not present in AccurateRip database Copy OK

Track 16

Filename C:\Audio Creator Music Library\Various 16 I Won't Say (I'm In Love).wav

Pre-gap length 0:00:01.68

Peak level 100.0 % Track quality 100.0 % Test CRC 10CA70C1 Copy CRC 10CA70C1 Track not present in AccurateRip database Copy OK

Track 17

Filename C:\Audio Creator Music Library\Various 17 True To Your Heart.wav

Pre-gap length 0:00:01.68

Peak level 77.4 % Track quality 100.0 % Test CRC CF864494 Copy CRC CF864494 Track not present in AccurateRip database Copy OK

Track 18

Filename C:\Audio Creator Music Library\Various 18 Circle Of Life.wav

Pre-gap length 0:00:01.68

Peak level 100.0 % Track quality 100.0 % Test CRC 3A071D3F Copy CRC 3A071D3F Track not present in AccurateRip database Copy OK

Track 19

Filename C:\Audio Creator Music Library\Various 19 Beauty & The Beast.wav

Pre-gap length 0:00:01.68

Peak level 100.0 % Track quality 100.0 % Test CRC 7AABBC80 Copy CRC 7AABBC80 Track not present in AccurateRip database Copy OK

None of the tracks are present in the AccurateRip database

No errors occurred

End of status report
 
REM GENRE PopREM DATE 1998REM DISCID 1110E913REM COMMENT "ExactAudioCopy v0.99pb5"PERFORMER "Various"TITLE "Walt Disney Records Presents Love Hits"FILE "Various 01 Can You Feel The Love Tonight.wav" WAVE TRACK 01 AUDIO TITLE "Can You Feel The Love Tonight" PERFORMER "Elton John" INDEX 01 00:00:00 TRACK 02 AUDIO TITLE "Colours Of The Wind" PERFORMER "Vanessa Williams" INDEX 00 04:01:05FILE "Various 02 Colours Of The Wind.wav" WAVE INDEX 01 00:00:00 TRACK 03 AUDIO TITLE "Go The Distance" PERFORMER "Micheal Bolton" INDEX 00 04:17:43FILE "Various 03 Go The Distance.wav" WAVE INDEX 01 00:00:00 TRACK 04 AUDIO TITLE "A Whole New World" PERFORMER "Regina Belle, Peabo Bryson" INDEX 00 04:41:58FILE "Various 04 A Whole New World.wav" WAVE INDEX 01 00:00:00 TRACK 05 AUDIO TITLE "Shooting Star" PERFORMER "Boyzone" INDEX 00 04:05:48FILE "Various 05 Shooting Star.wav" WAVE INDEX 01 00:00:00 TRACK 06 AUDIO TITLE "Kiss The Girl" PERFORMER "Peter Andre" INDEX 00 04:11:65FILE "Various 06 Kiss The Girl.wav" WAVE INDEX 01 00:00:00 TRACK 07 AUDIO TITLE "When You Wish Upon A Star" PERFORMER "Eternal" INDEX 00 02:53:45FILE "Various 07 When You Wish Upon A Star.wav" WAVE INDEX 01 00:00:00 TRACK 08 AUDIO TITLE "God Bless Us Everyone" PERFORMER "Alan Menken" INDEX 00 02:47:23FILE "Various 08 God Bless Us Everyone.wav" WAVE INDEX 01 00:00:00 TRACK 09 AUDIO TITLE "Cold Enough To Snow" PERFORMER "Jennifer Warnes" INDEX 00 03:34:33FILE "Various 09 Cold Enough To Snow.wav" WAVE INDEX 01 00:00:00 TRACK 10 AUDIO TITLE "Reflections" PERFORMER "CoCo Lee" INDEX 00 02:41:70FILE "Various 10 Reflections.wav" WAVE INDEX 01 00:00:00 TRACK 11 AUDIO TITLE "Someday" PERFORMER "All 4 One" INDEX 00 03:33:57FILE "Various 11 Someday.wav" WAVE INDEX 01 00:00:00 TRACK 12 AUDIO TITLE "If I Never Knew You" PERFORMER "Shanice, Jon Secada" INDEX 00 04:18:50FILE "Various 12 If I Never Knew You.wav" WAVE INDEX 01 00:00:00 TRACK 13 AUDIO TITLE "You've Got A Friend In Me" PERFORMER "Randy Newman, Lyle Lovett" INDEX 00 04:12:43FILE "Various 13 You've Got A Friend In Me.wav" WAVE INDEX 01 00:00:00 TRACK 14 AUDIO TITLE "A Place Called Home" PERFORMER "Alan Menken, Lori Beecham" INDEX 00 02:41:05FILE "Various 14 A Place Called Home.wav" WAVE INDEX 01 00:00:00 TRACK 15 AUDIO TITLE "I Just Can't Wait To Be King" PERFORMER "Elton John" INDEX 00 03:28:67FILE "Various 15 I Just Can't Wait To Be King.wav" WAVE INDEX 01 00:00:00 TRACK 16 AUDIO TITLE "I Won't Say (I'm In Love)" PERFORMER "Belinda Carlisle" INDEX 00 03:35:52FILE "Various 16 I Won't Say (I'm In Love).wav" WAVE INDEX 01 00:00:00 TRACK 17 AUDIO TITLE "True To Your Heart" PERFORMER "98 Degrees, Stevie Wonder" INDEX 00 03:17:27FILE "Various 17 True To Your Heart.wav" WAVE INDEX 01 00:00:00 TRACK 18 AUDIO TITLE "Circle Of Life" PERFORMER "Elton John" INDEX 00 04:15:42FILE "Various 18 Circle Of Life.wav" WAVE INDEX 01 00:00:00 TRACK 19 AUDIO TITLE "Beauty & The Beast" PERFORMER "Celine Dion, Peabo Bryson" INDEX 00 04:51:07FILE "Various 19 Beauty & The Beast.wav" WAVE INDEX 01 00:00:00


Трекер:  [ 08-Июл-2011 17:26 ]

  

Скачать .torrent

Размер .torrent файла 19 KB


Размер: 448 MB
Хэш (hash) релиза: 46a24b1b119a36208009b6c8188c51107e529844

Еще никто не оставлял запись к записи скачать торрент VA - Walt Disney Records Presents: Love Hits - 1998, FLAC . Будь первым!

!Обратная связь