Скачать через торрент музыку Принцесса-невеста The Princess Bride бесплатно без регистрации torrent

Если у вас наблюдаются проблемы со скриншотами, переходом по ссылками, скачиванием торрентов - проблемы в блокировщике рекламы AdBlock. #хорошегоДня!


Статистика раздачи
Размер:  196 MB   |    Зарегистрирован:  6 лет 5 месяцев   |    .torrent скачан:  34 раза   |   
Раздают:  1  
   
Загрузка...
 
Автор Сообщение

Galfimbul

avatar Galfimbul


Принцесса-невеста / The Princess Bride

Жанр: Score
Композитор: Mark Knopfler
Год выпуска диска: 1987
Страна-производитель диска: Germany
Издатель (лейбл): Vertigo
Номер по каталогу: 832 864-2
EAN/UPC: 042283286429

Аудио кодек: FLAC (*.flac)
Тип рипа: image+.cue
Битрейт аудио: lossless
Продолжительность: 39:26

Источник: собственный рип
Наличие сканов в содержимом раздачи: да (600dpi)

Треклист:
01. Once Upon a Time... Storybook Love [0:04:00.22]
02. I Will Never Love Again [0:03:04.90]
03. Florin Dance [0:01:32.69]
04. Morning Ride [0:01:36.66]
05. The Friends' Song [0:03:02.24]
06. The Cliffs of Insanity [0:03:18.69]
07. The Swordfight [0:02:43.06]
08. Guide My Sword [0:05:12.10]
09. The Fireswamp and the Rodents of Unusual Size [0:04:47.09]
10. Revenge [0:03:51.66]
11. A Happy Ending [0:01:52.53]
12. Storybook Love - Composed and Sung by Willy DeVille [0:04:24.60]
По просьбе аудитории предлагаю свой вариант саундтрека, который на трекере уже имеется в другой штамповке (см. ниже). Оба варианта сделаны с разных мастеров, моя версия на 26 секунд длинее. Диск представляет собой первопресс 1987 г., а не переиздание 1997, как можно увидеть по матрице:
В таком виде матрицы печатались до 1994 г., пока не были введены в практику так называемые IFPI SID-коды.

Ссылки к фильму: Кинопоиск.ру, IMDB, Wikipedia
Ссылки к саундтреку: soundtrackcollector.com, Discogs
Другая штамповка альбома на трекере: (Score) Принцесса-невеста / The Princess Bride (Mark Knopfler) - 1997 (1987), APE (image+.cue), lossless
Альбом в MP3 на трекере: (Score) The Princess Bride (Mark Knopfler) - 1997, MP3 (tracks), 320 kbps

 
Exact Audio Copy V0.99 prebeta 5 from 4. May 2009

EAC extraction logfile from 27. September 2010, 9:47

Mark Knopfler / The Princess Bride - Vertigo 1987

Used drive : HL-DT-STDVDRAM_GSA-T20N Adapter: 0 ID: 0

Read mode : SecureUtilize accurate stream : YesDefeat audio cache : YesMake use of C2 pointers : No

Read offset correction : 667Overread into Lead-In and Lead-Out : NoFill up missing offset samples with silence : YesDelete leading and trailing silent blocks : NoNull samples used in CRC calculations : YesUsed interface : Native Win32 interface for Win NT & 2000

Used output format : User Defined EncoderSelected bitrate : 1024 kBit/sQuality : HighAdd ID3 tag : NoCommand line compressor : C:\Program Files\Exact Audio Copy\Flac\flac.exeAdditional command line options : -8 -V %s

TOC of the extracted CD

Track | Start | Length | Start sector | End sector --------------------------------------------------------- 1 | 0:00.33 | 4:00.17 | 33 | 18049 2 | 4:00.50 | 3:04.68 | 18050 | 31917 3 | 7:05.43 | 1:32.52 | 31918 | 38869 4 | 8:38.20 | 1:36.50 | 38870 | 46119 5 | 10:14.70 | 3:02.18 | 46120 | 59787 6 | 13:17.13 | 3:18.52 | 59788 | 74689 7 | 16:35.65 | 2:43.05 | 74690 | 86919 8 | 19:18.70 | 5:12.08 | 86920 | 110327 9 | 24:31.03 | 4:47.07 | 110328 | 131859 10 | 29:18.10 | 3:51.50 | 131860 | 149234 11 | 33:09.60 | 1:52.40 | 149235 | 157674 12 | 35:02.25 | 4:24.45 | 157675 | 177519

Range status and errors

Selected range

Filename C:\Music\Mark Knopfler - The Princess Bride - Vertigo 1987.wav

Peak level 99.9 % Range quality 100.0 % Test CRC 9D51C068 Copy CRC 9D51C068 Copy OK

No errors occurred

AccurateRip summary

Track 1 accurately ripped (confidence 28) [BF2C9344]Track 2 accurately ripped (confidence 29) [E3B1E9F6]Track 3 accurately ripped (confidence 27) [08EEDDCB]Track 4 accurately ripped (confidence 27) [BB39303A]Track 5 accurately ripped (confidence 27) [D1930C70]Track 6 accurately ripped (confidence 28) [4AF94B27]Track 7 accurately ripped (confidence 28) [9341FDD1]Track 8 accurately ripped (confidence 27) [331D5070]Track 9 accurately ripped (confidence 27) [90FD74DC]Track 10 accurately ripped (confidence 27) [01BA6973]Track 11 accurately ripped (confidence 27) [9A13471C]Track 12 accurately ripped (confidence 27) [F9CA7394]

All tracks accurately ripped

End of status report


Трекер:  [ 08-Июл-2011 17:26 ]

  

Скачать .torrent

Размер .torrent файла 16 KB


Размер: 196 MB
Хэш (hash) релиза: a1419c4156fa22f552bb8d4f2479f133f8d5c197

Еще никто не оставлял запись к записи скачать торрент Принцесса-невеста The Princess Bride . Будь первым!

!Обратная связь