Скачать через торрент музыку Непокоренный Invictus бесплатно без регистрации torrent

Если у вас наблюдаются проблемы со скриншотами, переходом по ссылками, скачиванием торрентов - проблемы в блокировщике рекламы AdBlock. #хорошегоДня!


Статистика раздачи
Размер:  253 MB   |    Зарегистрирован:  6 лет 5 месяцев   |    .torrent скачан:  57 раз   |   
Раздают:  1  
   
Загрузка...
 
Автор Сообщение

Galfimbul

avatar Galfimbul


Непокоренный / Invictus

Жанр: Score
Композитор: Kyle Eastwood & Michael Stevens
Год выпуска диска: 2009
Производитель диска: USA
Аудио кодек: FLAC
Тип рипа: tracks+.cue
Битрейт аудио: lossless
Продолжительность: 00:47:18

01 - 9,000 Days (03:14)
02 - Invictus Theme (04:10)
03 - Colorblind (03:25)
04 - Siyalinda (The Waiting) (02:28)
05 - World In Union '95 (03:51)
06 - Madiba's Theme (01:17)
07 - Hamba Nathi (01:36)
08 - Thanda (Love) (02:09)
09 - Shosholoza (03:30)
10 - Inkathi (Time) (02:34)
11 - Ole Ole Ole , We Are The Champions (02:07)
12 - Enqena (Anxious) (00:59)
13 - The South African National Anthem (01:57)
14 - Ukunqoba (To Conquer) (02:32)
15 - Victory (04:02)
16 - Xolela (Forgiveness) (01:55)
17 - The Crossing (Osiyeza) (02:19)
18 - 9000 Days (Acoustic) (03:14)

Источник: what.cd
 
Exact Audio Copy V0.99 prebeta 4 from 23. January 2008

EAC extraction logfile from 10. March 2010, 18:19

Various / Invictus

Used drive : TSSTcorpCDDVDW SH-S222L Adapter: 0 ID: 1

Read mode : SecureUtilize accurate stream : YesDefeat audio cache : YesMake use of C2 pointers : No

Read offset correction : 6Overread into Lead-In and Lead-Out : NoFill up missing offset samples with silence : YesDelete leading and trailing silent blocks : NoNull samples used in CRC calculations : YesUsed interface : Native Win32 interface for Win NT & 2000Gap handling : Appended to previous track

Used output format : Internal WAV RoutinesSample format : 44.100 Hz; 16 Bit; Stereo

TOC of the extracted CD

Track | Start | Length | Start sector | End sector --------------------------------------------------------- 1 | 0:00.00 | 3:14.26 | 0 | 14575 2 | 3:14.26 | 4:09.64 | 14576 | 33314 3 | 7:24.15 | 3:24.55 | 33315 | 48669 4 | 10:48.70 | 2:28.02 | 48670 | 59771 5 | 13:16.72 | 3:50.66 | 59772 | 77087 6 | 17:07.63 | 1:17.19 | 77088 | 82881 7 | 18:25.07 | 1:35.40 | 82882 | 90046 8 | 20:00.47 | 2:08.64 | 90047 | 99710 9 | 22:09.36 | 3:30.21 | 99711 | 115481 10 | 25:39.57 | 2:34.13 | 115482 | 127044 11 | 28:13.70 | 2:06.69 | 127045 | 136563 12 | 30:20.64 | 0:59.20 | 136564 | 141008 13 | 31:20.09 | 1:57.20 | 141009 | 149803 14 | 33:17.29 | 2:32.25 | 149804 | 161228 15 | 35:49.54 | 4:01.40 | 161229 | 179343 16 | 39:51.19 | 1:54.58 | 179344 | 187951 17 | 41:46.02 | 2:18.49 | 187952 | 198350 18 | 44:04.51 | 3:13.53 | 198351 | 212878

Track 1

Filename F:\Various - Invictus (2009) [FLAC] {OST}\01 - Overtone & Yollandi Nortjie - 9,000 Days.wav

Pre-gap length 0:00:02.00

Peak level 97.7 % Track quality 100.0 % Test CRC 23AC1767 Copy CRC 23AC1767 Track not present in AccurateRip database Copy OK

Track 2

Filename F:\Various - Invictus (2009) [FLAC] {OST}\02 - Kyle Eastwood & Michael Stevens - Invictus Theme.wav

Peak level 97.7 % Track quality 100.0 % Test CRC F21F79BE Copy CRC F21F79BE Track not present in AccurateRip database Copy OK

Track 3

Filename F:\Various - Invictus (2009) [FLAC] {OST}\03 - Overtone - Colorblind.wav

Peak level 68.3 % Track quality 100.0 % Test CRC BE4F8739 Copy CRC BE4F8739 Track not present in AccurateRip database Copy OK

Track 4

Filename F:\Various - Invictus (2009) [FLAC] {OST}\04 - Kyle Eastwood & Michael Stevens - Siyalinda (The Waiting).wav

Peak level 54.7 % Track quality 100.0 % Test CRC 6387CAE2 Copy CRC 6387CAE2 Track not present in AccurateRip database Copy OK

Track 5

Filename F:\Various - Invictus (2009) [FLAC] {OST}\05 - Overtone & Yollandi Nortjie - World In Union '95.wav

Peak level 97.8 % Track quality 100.0 % Test CRC 7F80EB36 Copy CRC 7F80EB36 Track not present in AccurateRip database Copy OK

Track 6

Filename F:\Various - Invictus (2009) [FLAC] {OST}\06 - Kyle Eastwood & Michael Stevens - Madiba's Theme.wav

Peak level 97.7 % Track quality 100.0 % Test CRC 91121B3F Copy CRC 91121B3F Track not present in AccurateRip database Copy OK

Track 7

Filename F:\Various - Invictus (2009) [FLAC] {OST}\07 - Overtone & Yollandi Nortjie - Hamba Nathi.wav

Peak level 97.7 % Track quality 100.0 % Test CRC CC9E6B1B Copy CRC CC9E6B1B Track not present in AccurateRip database Copy OK

Track 8

Filename F:\Various - Invictus (2009) [FLAC] {OST}\08 - Kyle Eastwood & Michael Stevens - Thanda (Love).wav

Peak level 93.7 % Track quality 99.9 % Test CRC 550B67FF Copy CRC 550B67FF Track not present in AccurateRip database Copy OK

Track 9

Filename F:\Various - Invictus (2009) [FLAC] {OST}\09 - Overtone & Yollandi Nortjie - Shosholoza.wav

Peak level 97.3 % Track quality 100.0 % Test CRC A41BE980 Copy CRC A41BE980 Track not present in AccurateRip database Copy OK

Track 10

Filename F:\Various - Invictus (2009) [FLAC] {OST}\10 - Kyle Eastwood & Michael Stevens - Inkathi (Time).wav

Peak level 97.7 % Track quality 100.0 % Test CRC 5F6EA60A Copy CRC 5F6EA60A Track not present in AccurateRip database Copy OK

Track 11

Filename F:\Various - Invictus (2009) [FLAC] {OST}\11 - Overtone & Yollandi Nortjie - Ole Ole Ole , We Are The Champions.wav

Peak level 99.6 % Track quality 100.0 % Test CRC FFE6D88F Copy CRC FFE6D88F Track not present in AccurateRip database Copy OK

Track 12

Filename F:\Various - Invictus (2009) [FLAC] {OST}\12 - Kyle Eastwood & Michael Stevens - Enqena (Anxious).wav

Peak level 81.8 % Track quality 100.0 % Test CRC 71008405 Copy CRC 71008405 Track not present in AccurateRip database Copy OK

Track 13

Filename F:\Various - Invictus (2009) [FLAC] {OST}\13 - Overtone - The South African National Anthem.wav

Peak level 97.7 % Track quality 100.0 % Test CRC 66D70C92 Copy CRC 66D70C92 Track not present in AccurateRip database Copy OK

Track 14

Filename F:\Various - Invictus (2009) [FLAC] {OST}\14 - Kyle Eastwood & Michael Stevens - Ukunqoba (To Conquer).wav

Peak level 97.7 % Track quality 100.0 % Test CRC 882AB220 Copy CRC 882AB220 Track not present in AccurateRip database Copy OK

Track 15

Filename F:\Various - Invictus (2009) [FLAC] {OST}\15 - Soweto String Quartet - Victory.wav

Peak level 94.2 % Track quality 100.0 % Test CRC 5A71832A Copy CRC 5A71832A Track not present in AccurateRip database Copy OK

Track 16

Filename F:\Various - Invictus (2009) [FLAC] {OST}\16 - Kyle Eastwood & Michael Stevens - Xolela (Forgiveness).wav

Peak level 97.7 % Track quality 100.0 % Test CRC 2C564D8B Copy CRC 2C564D8B Track not present in AccurateRip database Copy OK

Track 17

Filename F:\Various - Invictus (2009) [FLAC] {OST}\17 - Overtone & Yollandi Nortjie - The Crossing (Osiyeza).wav

Peak level 97.7 % Track quality 100.0 % Test CRC B2127634 Copy CRC B2127634 Track not present in AccurateRip database Copy OK

Track 18

Filename F:\Various - Invictus (2009) [FLAC] {OST}\18 - Emile Welman - 9000 Days (Acoustic).wav

Peak level 97.7 % Track quality 100.0 % Test CRC 583CAE80 Copy CRC 583CAE80 Track not present in AccurateRip database Copy OK

None of the tracks are present in the AccurateRip database

No errors occurred

End of status report
 
REM GENRE SoundtrackREM DATE 2009REM DISCID FC0B1612REM COMMENT "ExactAudioCopy v0.99pb4"PERFORMER "Various"TITLE "Invictus"FILE "01 - Overtone & Yollandi Nortjie - 9,000 Days.wav" WAVE TRACK 01 AUDIO TITLE "9,000 Days" PERFORMER "Overtone & Yollandi Nortjie" INDEX 01 00:00:00FILE "02 - Kyle Eastwood & Michael Stevens - Invictus Theme.wav" WAVE TRACK 02 AUDIO TITLE "Invictus Theme" PERFORMER "Kyle Eastwood & Michael Stevens" INDEX 01 00:00:00FILE "03 - Overtone - Colorblind.wav" WAVE TRACK 03 AUDIO TITLE "Colorblind" PERFORMER "Overtone" INDEX 01 00:00:00FILE "04 - Kyle Eastwood & Michael Stevens - Siyalinda (The Waiting).wav" WAVE TRACK 04 AUDIO TITLE "Siyalinda (The Waiting)" PERFORMER "Kyle Eastwood & Michael Stevens" INDEX 01 00:00:00FILE "05 - Overtone & Yollandi Nortjie - World In Union '95.wav" WAVE TRACK 05 AUDIO TITLE "World In Union '95" PERFORMER "Overtone & Yollandi Nortjie" INDEX 01 00:00:00FILE "06 - Kyle Eastwood & Michael Stevens - Madiba's Theme.wav" WAVE TRACK 06 AUDIO TITLE "Madiba's Theme" PERFORMER "Kyle Eastwood & Michael Stevens" INDEX 01 00:00:00FILE "07 - Overtone & Yollandi Nortjie - Hamba Nathi.wav" WAVE TRACK 07 AUDIO TITLE "Hamba Nathi" PERFORMER "Overtone & Yollandi Nortjie" INDEX 01 00:00:00FILE "08 - Kyle Eastwood & Michael Stevens - Thanda (Love).wav" WAVE TRACK 08 AUDIO TITLE "Thanda (Love)" PERFORMER "Kyle Eastwood & Michael Stevens" INDEX 01 00:00:00FILE "09 - Overtone & Yollandi Nortjie - Shosholoza.wav" WAVE TRACK 09 AUDIO TITLE "Shosholoza" PERFORMER "Overtone & Yollandi Nortjie" INDEX 01 00:00:00FILE "10 - Kyle Eastwood & Michael Stevens - Inkathi (Time).wav" WAVE TRACK 10 AUDIO TITLE "Inkathi (Time)" PERFORMER "Kyle Eastwood & Michael Stevens" INDEX 01 00:00:00FILE "11 - Overtone & Yollandi Nortjie - Ole Ole Ole , We Are The Champions.wav" WAVE TRACK 11 AUDIO TITLE "Ole Ole Ole / We Are The Champions" PERFORMER "Overtone & Yollandi Nortjie" INDEX 01 00:00:00FILE "12 - Kyle Eastwood & Michael Stevens - Enqena (Anxious).wav" WAVE TRACK 12 AUDIO TITLE "Enqena (Anxious)" PERFORMER "Kyle Eastwood & Michael Stevens" INDEX 01 00:00:00FILE "13 - Overtone - The South African National Anthem.wav" WAVE TRACK 13 AUDIO TITLE "The South African National Anthem" PERFORMER "Overtone" INDEX 01 00:00:00FILE "14 - Kyle Eastwood & Michael Stevens - Ukunqoba (To Conquer).wav" WAVE TRACK 14 AUDIO TITLE "Ukunqoba (To Conquer)" PERFORMER "Kyle Eastwood & Michael Stevens" INDEX 01 00:00:00FILE "15 - Soweto String Quartet - Victory.wav" WAVE TRACK 15 AUDIO TITLE "Victory" PERFORMER "Soweto String Quartet" INDEX 01 00:00:00FILE "16 - Kyle Eastwood & Michael Stevens - Xolela (Forgiveness).wav" WAVE TRACK 16 AUDIO TITLE "Xolela (Forgiveness)" PERFORMER "Kyle Eastwood & Michael Stevens" INDEX 01 00:00:00FILE "17 - Overtone & Yollandi Nortjie - The Crossing (Osiyeza).wav" WAVE TRACK 17 AUDIO TITLE "The Crossing (Osiyeza)" PERFORMER "Overtone & Yollandi Nortjie" INDEX 01 00:00:00FILE "18 - Emile Welman - 9000 Days (Acoustic).wav" WAVE TRACK 18 AUDIO TITLE "9000 Days (Acoustic)" PERFORMER "Emile Welman" INDEX 01 00:00:00



Трекер:  [ 08-Июл-2011 17:25 ]

  

Скачать .torrent

Размер .torrent файла 22 KB


Размер: 253 MB
Хэш (hash) релиза: 2386c2522bc7f4fa164004c244440bdcedda1443

Торренты, похожие на Непокоренный Invictus скачать торрент

Форум Название Автор Размер S L Добавлен
Саундтреки к фильмам и мультфильмам (mp3) ·· (Soundtrack) Invictus / Непокоренный (Kyle Eastwood, Michael Stevens & Overtone) - 2009, MP3, 256-320 kbps Galfimbul 120329400115 MB 0 0 1292265842

21:44

13-Дек-10

Еще никто не оставлял запись к записи скачать торрент Непокоренный Invictus . Будь первым!

!Обратная связь