Скачать через торрент музыку Cinemagic - Dave Grusin witn London Symphony Orchestra бесплатно без регистрации torrent

Если у вас наблюдаются проблемы со скриншотами, переходом по ссылками, скачиванием торрентов - проблемы в блокировщике рекламы AdBlock. #хорошегоДня!


Статистика раздачи
Размер:  243 MB   |    Зарегистрирован:  6 лет 5 месяцев   |    .torrent скачан:  41 раз   |   
Раздают:  1  
   
Загрузка...
 
Автор Сообщение

Galfimbul

avatar Galfimbul


Cinemagic - Dave Grusin witn London Symphony Orchestra

Жанр: Soundtrack
Год выпуска диска: 1987
Производитель диска: ООО САНТЬ - Россия
Аудио кодек: APE
Тип рипа: image+.cue
Битрейт аудио: lossless
Продолжительность: 56:52
Трэклист:
01. On Golden Pond -from On Golden Pond [0:03:38.35]

02. New Hampshire Hornpipe - from On Golden Pond [0:02:25.00]

03. Heaven Can Wait - from Heaven Can Wait [0:04:36.73]

04. An Actor's Life - from Tootsie [0:05:08.27]

05. It Might Be You - from Tootsie [0:05:16.08]

06. Fratelli Chase -from The Goonies [0:03:20.37]

07. The Heart Is A Lonely Hunter -from The Heart Is A Lonely Hunter [0:04:45.10]

08. Mountain Dance - from Falling In Love [0:06:18.28]

09. Letting Go -- T.J.'s Theme -from The Champ [0:02:53.20]

10. The Champ - The Champ [0:03:30.05]

11. Condor - from There Days Of The Condor [0:04:44.70]

12. Goodbye for Kathy -from There Days Of The Condor [0:04:01.05]

13. PLO Camp Entrance -from Little Drummer Girl [0:02:51.25]

14. Epilogue -from Little Drummer Girl [0:03:22.50]

Featuring-
Don Grusin, Lee Ritenour, Abraham Laboriel, Harvey Mason, Mike Fisher, Emil Richards, Chuck Findley, Charley Loper,
Tom Scott, Ernie Watts, Eddie Daniels.
Exact Audio Copy V0.99 prebeta 4 from 23. January 2008

Отчёт EAC об извлечении, выполненном 28. января 2009, 17:44

Dave Grusin / Cinemagic

Дисковод: HL-DT-STDVDRAM GSA-T20N Adapter: 2 ID: 0

Режим чтения : Достоверность
Использование точного потока : Да
Отключение кэша аудио : Да
Использование указателей C2 : Нет

Коррекция смещения при чтении : 667
Способность читать области Lead-in и Lead-out : Нет
Заполнение пропущенных сэмплов тишиной : Да
Удаление блоков с тишиной в начале и конце : Нет
При вычислениях CRC использовались нулевые сэмплы : Нет
Интерфейс : Встроенный Win32-интерфейс для Win NT/2000

Выходной формат : Внутренние WAV-операции
Формат сэмплов : 44.100 Гц; 16 бит; стерео

TOC извлечённого CD

Трек | Старт | Длительность | Начальный сектор | Конечный сектор
---------------------------------------------------------------------
1 | 0:00.00 | 3:38.35 | 0 | 16384
2 | 3:38.35 | 2:25.00 | 16385 | 27259
3 | 6:03.35 | 4:36.73 | 27260 | 48032
4 | 10:40.33 | 5:08.27 | 48033 | 71159
5 | 15:48.60 | 5:16.08 | 71160 | 94867
6 | 21:04.68 | 3:20.37 | 94868 | 109904
7 | 24:25.30 | 4:45.10 | 109905 | 131289
8 | 29:10.40 | 6:18.28 | 131290 | 159667
9 | 35:28.68 | 2:53.20 | 159668 | 172662
10 | 38:22.13 | 3:30.05 | 172663 | 188417
11 | 41:52.18 | 4:44.70 | 188418 | 209787
12 | 46:37.13 | 4:01.05 | 209788 | 227867
13 | 50:38.18 | 2:51.25 | 227868 | 240717
14 | 53:29.43 | 3:22.50 | 240718 | 255917

Характеристики диапазона извлечения и сообщения об ошибках

Выбранный диапазон

Имя файла D:\Image\WavelabTemp\Dave Grusin - Cinemagic.wav

Пиковый уровень 99.6 %
Качество диапазона 100.0 %
CRC копии 3BDD4274
Копирование... OK

Ошибок не произошло

AccurateRip: сводка

Трек 1 нет в базе данных
Трек 2 нет в базе данных
Трек 3 нет в базе данных
Трек 4 нет в базе данных
Трек 5 нет в базе данных
Трек 6 нет в базе данных
Трек 7 нет в базе данных
Трек 8 нет в базе данных
Трек 9 нет в базе данных
Трек 10 нет в базе данных
Трек 11 нет в базе данных
Трек 12 нет в базе данных
Трек 13 нет в базе данных
Трек 14 нет в базе данных

Ни одного трека нет в базе AccurateRip

Конец отчёта


Трекер:  [ 08-Июл-2011 17:24 ]

  

Скачать .torrent

Размер .torrent файла 1 KB


Размер: 243 MB
Хэш (hash) релиза: cc6b4484a73e28967d6d668d3fafe2ca83207b3e

Еще никто не оставлял запись к записи скачать торрент Cinemagic - Dave Grusin witn London Symphony Orchestra . Будь первым!

!Обратная связь