Скачать через торрент музыку Pat Metheny Group - The Falcon And The Snowman OST - 1985, FLAC бесплатно без регистрации torrent

Если у вас наблюдаются проблемы со скриншотами, переходом по ссылками, скачиванием торрентов - проблемы в блокировщике рекламы AdBlock. #хорошегоДня!


Статистика раздачи
Размер:  205 MB   |    Зарегистрирован:  6 лет 5 месяцев   |    .torrent скачан:  55 раз   |   
Раздают:  1  
   
Загрузка...
 
Автор Сообщение

Galfimbul

avatar Galfimbul


Pat Metheny Group - The Falcon And The Snowman OST

Жанр: Electronic, Jazz
Год выпуска диска: 1985
Аудио кодек: FLAC
Тип рипа: image+.cue
Битрейт аудио: lossless
Трэклист:
1. Psalm 121/Flight Of The Falcon (04:08)
performed by Pat Metheny Group
2. Daulton Lee (05:56)
performed by Pat Metheny Group
3. Chris (03:16)
performed by Pat Metheny Group
4. "The Falcon" (04:59)
performed by Pat Metheny Group
5. This Is Not America (03:53)
performed by David Bowie/Pat Metheny Group
6. Extent Of The Lie (04:15)
performed by Pat Metheny Group
7. The Level Of Deception (05:45)
performed by Pat Metheny Group
8. Capture (03:57)
performed by Pat Metheny Group
9. Epilogue (psalm 121) (02:14)
performed by Pat Metheny Group
Доп. информация: Саундрек, написанный Metheny к фильму "Сокол и Снеговик". Трэк 5 "This Is Not America" с участием Дэвида Боуи.
Exact Audio Copy V0.99 prebeta 4 from 23. January 2008

EAC extraction logfile from 5. September 2008, 13:18

Pat Metheny / The Falcon and The Snowman

Used drive : TSSTcorpCD/DVDW SH-S182M Adapter: 1 ID: 0

Read mode : Secure
Utilize accurate stream : Yes
Defeat audio cache : Yes
Make use of C2 pointers : No

Read offset correction : 6
Overread into Lead-In and Lead-Out : No
Fill up missing offset samples with silence : Yes
Delete leading and trailing silent blocks : No
Null samples used in CRC calculations : Yes
Used interface : Installed external ASPI interface

Used output format : User Defined Encoder
Selected bitrate : 768 kBit/s
Quality : High
Add ID3 tag : No
Command line compressor : C:\Archivos de programa\Exact Audio Copy\FLAC\FLAC.EXE
Additional command line options : -6 -V -T "ARTIST=%a" -T "TITLE=%t" -T "ALBUM=%g" -T "DATE=%y" -T "TRACKNUMBER=%n" -T "GENRE=%m" -T "COMMENT=%e" %s -o %d

TOC of the extracted CD

Track | Start | Length | Start sector | End sector
---------------------------------------------------------
1 | 0:00.37 | 4:09.28 | 37 | 18739
2 | 4:09.65 | 5:59.15 | 18740 | 45679
3 | 10:09.05 | 3:21.10 | 45680 | 60764
4 | 13:30.15 | 5:02.25 | 60765 | 83439
5 | 18:32.40 | 3:55.72 | 83440 | 101136
6 | 22:28.37 | 4:18.03 | 101137 | 120489
7 | 26:46.40 | 5:49.05 | 120490 | 146669
8 | 32:35.45 | 4:03.20 | 146670 | 164914
9 | 36:38.65 | 2:16.70 | 164915 | 175184

Range status and errors

Selected range

Filename D:\emule\Procol Harum 30th Anniversary Collection\Disc 2\Pat Metheny - The Falcon and The Snowman.wav

Peak level 100.0 %
Range quality 100.0 %
Copy CRC 57B73368
Copy OK

No errors occurred

AccurateRip summary

Track 1 accurately ripped (confidence 4) [5A1E4019]
Track 2 accurately ripped (confidence 4) [389B4C66]
Track 3 accurately ripped (confidence 4) [B4A81784]
Track 4 accurately ripped (confidence 4) [B8E70F19]
Track 5 accurately ripped (confidence 4) [73BFF187]
Track 6 accurately ripped (confidence 4) [58B05FC1]
Track 7 accurately ripped (confidence 4) [EC8065FD]
Track 8 accurately ripped (confidence 4) [C10B6CA1]
Track 9 accurately ripped (confidence 4) [459E129C]

All tracks accurately ripped

End of status report


Трекер:  [ 08-Июл-2011 17:19 ]

  

Скачать .torrent

Размер .torrent файла 33 KB


Размер: 205 MB
Хэш (hash) релиза: 70d9241697ae4acf520bf70c4d5958f398c553dc

Еще никто не оставлял запись к записи скачать торрент Pat Metheny Group - The Falcon And The Snowman OST - 1985, FLAC . Будь первым!

!Обратная связь