Скачать через торрент музыку Aaron Zigman - Sex And The City бесплатно без регистрации torrent

Если у вас наблюдаются проблемы со скриншотами, переходом по ссылками, скачиванием торрентов - проблемы в блокировщике рекламы AdBlock. #хорошегоДня!


Статистика раздачи
Размер:  258 MB   |    Зарегистрирован:  6 лет 5 месяцев   |    .torrent скачан:  39 раз   |   
Раздают:  1  
   
Загрузка...
 
Автор Сообщение

Galfimbul

avatar Galfimbul


Aaron Zigman - Sex And The City (OST)

-=Original Motion Picture Score=-
Жанр: Soundtrack
Выпущено: Universal Music Croup
Год выпуска диска: 2008
Производитель диска: USA
Аудио кодек: WAVPack (iso.wv)
Тип рипа: image+.cue
Битрейт аудио: lossless
Продолжительность: 00:44:59

Релиз групп
01. Love Letters
02. Dante
03. The Closet
04. Big Screws Up
05. It’s Me & You Suite
06. It Was Love
07. Penthouse
08. Did I Dream It
09. Water Breaks
10. Taxi
11. 76 Guests
12. Leaving Wedding
13. Louise Leaves
14. City Hall
15. Girls Walk Up
16. Carrie Sees Vogue
17. Sushi
18. It Was Love


Код:

Exact Audio Copy V0.99 prebeta 4 from 23. January 2008

Отчёт EAC об извлечении, выполненном 8. марта 2009, 13:01

Aaron Zigman / Sex And The City (OST)

Дисковод: Optiarc DVD RW AD-7201A   Adapter: 0  ID: 0

Режим чтения                 : Достоверность
Использование точного потока : Да
Отключение кэша аудио        : Да
Использование указателей C2  : Нет

Коррекция смещения при чтении                     : 48
Способность читать области Lead-in и Lead-out     : Нет
Заполнение пропущенных сэмплов тишиной            : Да
Удаление блоков с тишиной в начале и конце        : Нет
При вычислениях CRC использовались нулевые сэмплы : Да
Интерфейс                                         : Встроенный Win32-интерфейс для Win NT/2000

Выходной формат : Внутренние WAV-операции
Формат сэмплов  : 44.100 Гц; 16 бит; стерео

TOC извлечённого CD

     Трек |   Старт  | Длительность | Начальный сектор | Конечный сектор
    ---------------------------------------------------------------------
       1  |  0:00.00 |    3:42.07   |           0      |      16656
       2  |  3:42.07 |    4:23.64   |       16657      |      36445
       3  |  8:05.71 |    2:30.15   |       36446      |      47710
       4  | 10:36.11 |    2:48.49   |       47711      |      60359
       5  | 13:24.60 |    4:47.43   |       60360      |      81927
       6  | 18:12.28 |    3:34.62   |       81928      |      98039
       7  | 21:47.15 |    2:20.70   |       98040      |     108609
       8  | 24:08.10 |    2:26.68   |      108610      |     119627
       9  | 26:35.03 |    1:44.58   |      119628      |     127485
      10  | 28:19.61 |    1:06.59   |      127486      |     132494
      11  | 29:26.45 |    0:56.61   |      132495      |     136755
      12  | 30:23.31 |    3:20.72   |      136756      |     151827
      13  | 33:44.28 |    1:40.74   |      151828      |     159401
      14  | 35:25.27 |    2:06.72   |      159402      |     168923
      15  | 37:32.24 |    1:12.43   |      168924      |     174366
      16  | 38:44.67 |    0:57.36   |      174367      |     178677
      17  | 39:42.28 |    1:50.01   |      178678      |     186928
      18  | 41:32.29 |    3:27.20   |      186929      |     202473

Характеристики диапазона извлечения и сообщения об ошибках

Выбранный диапазон

     Имя файла D:\Моя музыка\Зарубежное\Aaron Zigman - Sex And The City (OST) (2008)\Aaron Zigman - Sex And The City (OST).wav

     Пиковый уровень 100.0 %
     Качество диапазона 99.9 %
     CRC копии 71B741D2
     Копирование... OK

Ошибок не произошло

Конец отчёта

Код:

REM GENRE Soundtrack
REM DATE 2008
REM DISCID FA0A8B12
REM COMMENT "ExactAudioCopy v0.99pb4"
PERFORMER "Aaron Zigman"
TITLE "Sex And The City (OST)"
FILE "Aaron Zigman - Sex And The City (OST).wav" WAVE
  TRACK 01 AUDIO
    TITLE "Love Letters"
    PERFORMER "Aaron Zigman"
    INDEX 01 00:00:00
  TRACK 02 AUDIO
    TITLE "Dante"
    PERFORMER "Aaron Zigman"
    INDEX 01 03:42:07
  TRACK 03 AUDIO
    TITLE "The Closet"
    PERFORMER "Aaron Zigman"
    INDEX 01 08:05:71
  TRACK 04 AUDIO
    TITLE "Big Screws Up"
    PERFORMER "Aaron Zigman"
    INDEX 01 10:36:11
  TRACK 05 AUDIO
    TITLE "It's Me & You Suite"
    PERFORMER "Aaron Zigman"
    INDEX 01 13:24:60
  TRACK 06 AUDIO
    TITLE "It Was Love"
    PERFORMER "Aaron Zigman"
    INDEX 01 18:12:28
  TRACK 07 AUDIO
    TITLE "Penthouse"
    PERFORMER "Aaron Zigman"
    INDEX 01 21:47:15
  TRACK 08 AUDIO
    TITLE "Did I Dream It"
    PERFORMER "Aaron Zigman"
    INDEX 01 24:08:10
  TRACK 09 AUDIO
    TITLE "Water Breaks"
    PERFORMER "Aaron Zigman"
    INDEX 01 26:35:03
  TRACK 10 AUDIO
    TITLE "Taxi"
    PERFORMER "Aaron Zigman"
    INDEX 01 28:19:61
  TRACK 11 AUDIO
    TITLE "76 Guests"
    PERFORMER "Aaron Zigman"
    INDEX 01 29:26:45
  TRACK 12 AUDIO
    TITLE "Leaving Wedding"
    PERFORMER "Aaron Zigman"
    INDEX 01 30:23:31
  TRACK 13 AUDIO
    TITLE "Louise Leaves"
    PERFORMER "Aaron Zigman"
    INDEX 01 33:44:28
  TRACK 14 AUDIO
    TITLE "City Hall"
    PERFORMER "Aaron Zigman"
    INDEX 01 35:25:27
  TRACK 15 AUDIO
    TITLE "Girls Walk Up"
    PERFORMER "Aaron Zigman"
    INDEX 01 37:32:24
  TRACK 16 AUDIO
    TITLE "Carrie Sees Vogue"
    PERFORMER "Aaron Zigman"
    INDEX 01 38:44:67
  TRACK 17 AUDIO
    TITLE "Sushi"
    PERFORMER "Aaron Zigman"
    INDEX 01 39:42:28
  TRACK 18 AUDIO
    TITLE "It Was Love"
    PERFORMER "Aaron Zigman"
    INDEX 01 41:32:29


Трекер:  [ 08-Июл-2011 21:51 ]

  

Скачать .torrent

Размер .torrent файла 10 KB


Размер: 258 MB
Хэш (hash) релиза: f8a72289a3deaee9d4ae050fa6c6dfe363b27a3b

Торренты, похожие на Aaron Zigman - Sex And The City скачать торрент

Форум Название Автор Размер S L Добавлен
Саундтреки к фильмам и мультфильмам (mp3) ·· (Score) Секс в большом городe / Sex And The City / Sex & The City (Aaron Zigman, Bob Christianson, Rob Mounsey & VA) (15CD) [2002-2014, MP3, 128/320 kbps] Galfimbul 14777182871.38 GB 0 0 1423302751

12:52

7-Фев-15

Саундтреки ·· (Score) Секс в большом городе / Sex and the City (by Aaron Zigman) - 2008, FLAC (tracks+.cue), lossless Umakiro 229802209219 MB 0 0 1332246540

15:29

20-Мар-12

Саундтреки к фильмам и мультфильмам (lossless) ·· (Score) Секс в большом городе 2 / Sex and the City 2 (by Aaron Zigman) - 2010, FLAC (tracks+.cue), lossless Galfimbul 260600676249 MB 0 0 1328976196

19:03

11-Фев-12

Саундтреки к фильмам и мультфильмам (mp3) ·· (Score) Секс в большом городе 2 / Sex And The City 2 [Promo] (by Aaron Zigman) - 2010 [MP3 (tracks) 320 kbps] Galfimbul 121283332116 MB 0 0 1292265336

21:35

13-Дек-10

Саундтреки к фильмам и мультфильмам (mp3) ·· (Soundtrack/Score) Секс в большом городе / Sex and the City — 3 CD — Aaron Zigman (Score), VA — 2008, MP3 (tracks), 320 kbps Phoenix 402289043384 MB 0 0 1292265146

21:32

13-Дек-10

Саундтреки к фильмам и мультфильмам (mp3) ·· (Soundtrack) Секс в большом городе 2 / Sex And The City 2 (by Aaron Zigman & VA) - 2010 [MP3 (tracks) 320 kbps] AqvaGen 155158545148 MB 0 0 1292265076

21:31

13-Дек-10

Еще никто не оставлял запись к записи скачать торрент Aaron Zigman - Sex And The City . Будь первым!

!Обратная связь