Скачать через торрент музыку Various Artists - Hitch бесплатно без регистрации torrent

Если у вас наблюдаются проблемы со скриншотами, переходом по ссылками, скачиванием торрентов - проблемы в блокировщике рекламы AdBlock. #хорошегоДня!


Статистика раздачи
Размер:  336 MB   |    Зарегистрирован:  6 лет 5 месяцев   |    .torrent скачан:  38 раз   |   
Раздают:  1  
   
Загрузка...
 
Автор Сообщение

Galfimbul

avatar Galfimbul


Various Artists - Hitch (Motion Picture Soundtrack)

Страна: USA
Жанр: Soundtrack
Год выпуска: 2005
Формат: APE (image + .cue)
Битрейт аудио: lossless
Продолжительность: 49:14
Трэклист:
1. Amerie “1 Thing”
2. John Legend "Don't You Worry 'Bout A Thing"
3. Earth, Wind & Fire featuring Kelly Rowland and Sleepy Brown "This Is How I Feel"
4. Mark Ronson featuring Ghostface Killah, Nate Dogg, Trife Da God and Saigon "Ooh Wee"
5. Heavy D & The Boyz "Now That We Found Love"
6. Meleni Smith "Happy"
7. The O'Jays "Love Train"
8. The Temptations "I Can't Get Next To You"
9. Jimmy Cliff “You Can Get It If You Really Want”
10. Martha Reeves & The Vandellas "It's Easy To Fall In Love *(With A Guy Like You)"
11. Earth, Wind & Fire "Reasons"
12. Omarion "Never Gonna Let You Go (She's A Keepa)
13. Kevin Lyttle "Turn Me On (Low Tide Remix)"
Exact Audio Copy V0.99 prebeta 3 from 28. July 2007

EAC extraction logfile from 20. August 2007, 1:21

Hitch (Motion Picture Soundtrack) / Hitch - Music From The Motion Picture

Used drive : TSSTcorpCD/DVDW TS-L632D Adapter: 1 ID: 1

Read mode : Secure
Utilize accurate stream : Yes
Defeat audio cache : Yes
Make use of C2 pointers : No

Read offset correction : 6
Overread into Lead-In and Lead-Out : No
Fill up missing offset samples with silence : Yes
Delete leading and trailing silent blocks : No
Null samples used in CRC calculations : Yes
Used interface : Installed external ASPI interface

Used output format : Internal WAV Routines
Sample format : 44.100 Hz; 16 Bit; Stereo

TOC of the extracted CD

Track | Start | Length | Start sector | End sector
---------------------------------------------------------
1 | 0:00.00 | 4:02.40 | 0 | 18189
2 | 4:02.40 | 4:46.37 | 18190 | 39676
3 | 8:49.02 | 4:13.25 | 39677 | 58676
4 | 13:02.27 | 3:30.43 | 58677 | 74469
5 | 16:32.70 | 4:19.02 | 74470 | 93896
6 | 20:51.72 | 3:54.38 | 93897 | 111484
7 | 24:46.35 | 2:59.30 | 111485 | 124939
8 | 27:45.65 | 2:45.25 | 124940 | 137339
9 | 30:31.15 | 2:40.27 | 137340 | 149366
10 | 33:11.42 | 2:18.10 | 149367 | 159726
11 | 35:29.52 | 5:01.00 | 159727 | 182301
12 | 40:30.52 | 3:37.13 | 182302 | 198589
13 | 44:07.65 | 5:06.57 | 198590 | 221596

Range status and errors

Selected range

Filename C:\Documents and Settings\Administrator\??\Hitch (Motion Picture Soundtrack) - Hitch - Music From The Motion Picture.wav

Peak level 99.8 %
Range quality 100.0 %
Test CRC 9DF3B753
Copy CRC 9DF3B753
Copy OK

No errors occurred


Трекер:  [ 08-Июл-2011 21:53 ]

  

Скачать .torrent

Размер .torrent файла 14 KB


Размер: 336 MB
Хэш (hash) релиза: 5b13af08cf19667a55046b1b20e877b942baa102

Еще никто не оставлял запись к записи скачать торрент Various Artists - Hitch . Будь первым!

!Обратная связь