Скачать через торрент музыку James Newton Howard - Unbreakable Неуязвимый - 2000, FLAC бесплатно без регистрации torrent

Если у вас наблюдаются проблемы со скриншотами, переходом по ссылками, скачиванием торрентов - проблемы в блокировщике рекламы AdBlock. #хорошегоДня!


Статистика раздачи
Размер:  176 MB   |    Зарегистрирован:  6 лет 5 месяцев   |    .torrent скачан:  42 раза   |   
Раздают:  1  
   
Загрузка...
 
Автор Сообщение

Galfimbul

avatar Galfimbul


JUnbreakable / Неуязвимый
Жанр: Score
Год выпуска диска: 2000
Производитель диска: USA
Аудио кодек: FLAC
Тип рипа: tracks+.cue
Битрейт аудио: lossless
Продолжительность: 44:22

Трэклист:

1. Visions
2. Reflection Of Elijah
3. Weightlifting
4. Hieroglyphics
5.Falling Down
6. Unbreakable
7. Goodnight
8. The Wreck
9. Second Date
10. School Nurse
11. Blindsided
12. The Orange Man
13. Carrying Audrey
14. Mr. Glass / End Title
Exact Audio Copy V0.99 prebeta 5 from 4. May 2009

EAC extraction logfile from 12. August 2009, 13:21

James Newton Howard / Unbreakable (OST)

Used drive : Optiarc DVD RW AD-7170A Adapter: 0 ID: 0

Read mode : Secure
Utilize accurate stream : Yes
Defeat audio cache : Yes
Make use of C2 pointers : No

Read offset correction : 48
Overread into Lead-In and Lead-Out : No
Fill up missing offset samples with silence : Yes
Delete leading and trailing silent blocks : No
Null samples used in CRC calculations : Yes
Used interface : Native Win32 interface for Win NT & 2000
Gap handling : Appended to previous track

Used output format : User Defined Encoder
Selected bitrate : 320 kBit/s
Quality : High
Add ID3 tag : No
Command line compressor : C:\Program Files\Exact Audio Copy\Flac\flac.exe
Additional command line options : -8 -V -T "ARTIST=%a" -T "TITLE=%t" -T "ALBUM=%g" -T "DATE=%y" -T "TRACKNUMBER=%n" -T "GENRE=%m" -T "COMMENT=EAC FLAC -8" %s

TOC of the extracted CD

Track | Start | Length | Start sector | End sector
---------------------------------------------------------
1 | 0:00.00 | 5:51.62 | 0 | 26386
2 | 5:51.62 | 4:03.64 | 26387 | 44675
3 | 9:55.51 | 3:39.09 | 44676 | 61109
4 | 13:34.60 | 1:55.46 | 61110 | 69780
5 | 15:30.31 | 2:25.08 | 69781 | 80663
6 | 17:55.39 | 3:17.52 | 80664 | 95490
7 | 21:13.16 | 2:20.31 | 95491 | 106021
8 | 23:33.47 | 3:40.36 | 106022 | 122557
9 | 27:14.08 | 1:25.64 | 122558 | 128996
10 | 28:39.72 | 1:17.45 | 128997 | 134816
11 | 29:57.42 | 1:51.74 | 134817 | 143215
12 | 31:49.41 | 2:27.58 | 143216 | 154298
13 | 34:17.24 | 2:32.23 | 154299 | 165721
14 | 36:49.47 | 7:32.56 | 165722 | 199677

Track 1

Filename K:\SoundTrack_Unbreakable\ 01. James Newton Howard – Visions.wav

Pre-gap length 0:00:02.00

Peak level 99.8 %
Track quality 100.0 %
Test CRC 0B0366E3
Copy CRC 997CA86D
Copy OK

Track 2

Filename K:\SoundTrack_Unbreakable\ 02. James Newton Howard – Reflection Of Elijah.wav

Peak level 23.5 %
Track quality 100.0 %
Test CRC 7CFF53FF
Copy CRC 7CFF53FF
Copy OK

Track 3

Filename K:\SoundTrack_Unbreakable\ 03. James Newton Howard – Weightlifting.wav

Peak level 23.5 %
Track quality 100.0 %
Test CRC E5716A86
Copy CRC E5716A86
Copy OK

Track 4

Filename K:\SoundTrack_Unbreakable\ 04. James Newton Howard – Hieroglyphics.wav

Peak level 8.8 %
Track quality 100.0 %
Test CRC B81D9117
Copy CRC B81D9117
Copy OK

Track 5

Filename K:\SoundTrack_Unbreakable\ 05. James Newton Howard – Falling Down.wav

Peak level 36.8 %
Track quality 99.9 %
Test CRC 7EFA080E
Copy CRC 7EFA080E
Copy OK

Track 6

Filename K:\SoundTrack_Unbreakable\ 06. James Newton Howard – Unbreakable.wav

Peak level 99.8 %
Track quality 100.0 %
Test CRC 2DB192CD
Copy CRC 2DB192CD
Copy OK

Track 7

Filename K:\SoundTrack_Unbreakable\ 07. James Newton Howard – Goodnight.wav

Peak level 9.5 %
Track quality 100.0 %
Test CRC 1228DC11
Copy CRC 1228DC11
Copy OK

Track 8

Filename K:\SoundTrack_Unbreakable\ 08. James Newton Howard – The Wreck.wav

Peak level 82.8 %
Track quality 99.9 %
Test CRC 158CD17C
Copy CRC 158CD17C
Copy OK

Track 9

Filename K:\SoundTrack_Unbreakable\ 09. James Newton Howard – Second Date.wav

Peak level 6.1 %
Track quality 100.0 %
Test CRC 210D4F8B
Copy CRC 210D4F8B
Copy OK

Track 10

Filename K:\SoundTrack_Unbreakable\ 10. James Newton Howard – School Nurse.wav

Peak level 8.7 %
Track quality 100.0 %
Test CRC 6CD0FF26
Copy CRC 6CD0FF26
Copy OK

Track 11

Filename K:\SoundTrack_Unbreakable\ 11. James Newton Howard – Blindsided.wav

Peak level 99.8 %
Track quality 100.0 %
Test CRC A873D18E
Copy CRC A873D18E
Copy OK

Track 12

Filename K:\SoundTrack_Unbreakable\ 12. James Newton Howard – The Orange Man.wav

Peak level 57.1 %
Track quality 99.9 %
Test CRC 5B6F56E1
Copy CRC 5B6F56E1
Copy OK

Track 13

Filename K:\SoundTrack_Unbreakable\ 13. James Newton Howard – Carrying Audrey.wav

Peak level 12.3 %
Track quality 100.0 %
Test CRC 7AB23945
Copy CRC 7AB23945
Copy OK

Track 14

Filename K:\SoundTrack_Unbreakable\ 14. James Newton Howard – Mr. Glass , End Title.wav

Peak level 55.9 %
Track quality 100.0 %
Test CRC 710EA43C
Copy CRC 710EA43C
Copy OK

No errors occurred

End of status report


Трекер:  [ 08-Июл-2011 21:54 ]

  

Скачать .torrent

Размер .torrent файла 15 KB


Размер: 176 MB
Хэш (hash) релиза: 537f43c9a783129c68c16cd80237cddbff6ac065

Еще никто не оставлял запись к записи скачать торрент James Newton Howard - Unbreakable Неуязвимый - 2000, FLAC . Будь первым!

!Обратная связь