Скачать через торрент музыку Various Artists - Music From The Films Of Audrey Hepburn бесплатно без регистрации torrent

Если у вас наблюдаются проблемы со скриншотами, переходом по ссылками, скачиванием торрентов - проблемы в блокировщике рекламы AdBlock. #хорошегоДня!


Статистика раздачи
Размер:  151 MB   |    Зарегистрирован:  6 лет 5 месяцев   |    .torrent скачан:  55 раз   |   
Раздают:  1  
   
Загрузка...
 
Автор Сообщение

Galfimbul

avatar Galfimbul


Music From The Films Of Audrey Hepburn

Жанр: Compilation
Год выпуска диска: 1993
Аудио кодек: FLAC
Тип рипа: tracks+.cue
Битрейт аудио: lossless
Трэклист:
1. Breakfast at Tiffany's: Moon River [2:40]
2. Charade: Main Title [2:07]
3. My Fair Lady: Overture [3:23]
4. Funny Face: He Loves, She Loves [4:59]
5. The Nun's Story: Main Title [2:37]
6. Wait Until Dark: Theme for Three [2:43]
7. How to Steal a Million: Main Title [1:47]
8. Robin and Marian: John Bursts In/The End [4:35]
9. Two for the Road: Main Title [2:41]
10. Paris When It Sizzles: Gabrielle [2:46]
11. Breakfast at Tiffany's: Moon River - Audrey Hepburn [2:01]
Audrey Hepburn
Franz Waxman
Fred Astaire
Frederick Loewe
Henry Mancini
John Barry
John Williams
Nelson Riddle
 
Exact Audio Copy V0.99 prebeta 5 from 4. May 2009

EAC extraction logfile from 18. October 2009, 16:25

Various Artists / Music From The Films Of Audrey Hepburn

Used drive : HL-DT-STDVD-RAM GH22NP20 Adapter: 0 ID: 0

Read mode : SecureUtilize accurate stream : YesDefeat audio cache : YesMake use of C2 pointers : No

Read offset correction : 102Overread into Lead-In and Lead-Out : NoFill up missing offset samples with silence : YesDelete leading and trailing silent blocks : NoNull samples used in CRC calculations : YesUsed interface : Native Win32 interface for Win NT & 2000Gap handling : Appended to previous track

Used output format : User Defined EncoderSelected bitrate : 320 kBit/sQuality : HighAdd ID3 tag : NoCommand line compressor : C:\Program Files\Exact Audio Copy\Flac\flac.exeAdditional command line options : -V -8 -T "artist=%a" -T "title=%t" -T "album=%g" -T "date=%y" -T "tracknumber=%n" -T "genre=%m" %s

TOC of the extracted CD

Track | Start | Length | Start sector | End sector --------------------------------------------------------- 1 | 0:00.32 | 2:42.23 | 32 | 12204 2 | 2:42.55 | 2:09.37 | 12205 | 21916 3 | 4:52.17 | 3:25.35 | 21917 | 37326 4 | 8:17.52 | 5:01.70 | 37327 | 59971 5 | 13:19.47 | 2:38.38 | 59972 | 71859 6 | 15:58.10 | 2:46.55 | 71860 | 84364 7 | 18:44.65 | 1:49.50 | 84365 | 92589 8 | 20:34.40 | 4:38.72 | 92590 | 113511 9 | 25:13.37 | 2:42.08 | 113512 | 125669 10 | 27:55.45 | 2:48.32 | 125670 | 138301 11 | 30:44.02 | 2:03.13 | 138302 | 147539

Track 1

Filename D:\Music\100percentsrips\Various Artists - 1993 - Music From The Films Of Audrey Hepburn [FLAC]\01 - Breakfast At Tiffany's.wav

Pre-gap length 0:00:02.42

Peak level 59.2 % Track quality 100.0 % Test CRC 941C4D8A Copy CRC 941C4D8A Cannot be verified as accurate (confidence 1) [735FF2E0], AccurateRip returned [E2B40A8C] Copy OK

Track 2

Filename D:\Music\100percentsrips\Various Artists - 1993 - Music From The Films Of Audrey Hepburn [FLAC]\02 - Charade, Main Title.wav

Pre-gap length 0:00:02.16

Peak level 63.2 % Track quality 99.9 % Test CRC 228DC864 Copy CRC 228DC864 Cannot be verified as accurate (confidence 1) [F4FBC9D9], AccurateRip returned [87ED2D91] Copy OK

Track 3

Filename D:\Music\100percentsrips\Various Artists - 1993 - Music From The Films Of Audrey Hepburn [FLAC]\03 - My Fair Lady, Overture.wav

Pre-gap length 0:00:01.29

Peak level 81.0 % Track quality 100.0 % Test CRC 44F8F855 Copy CRC 44F8F855 Cannot be verified as accurate (confidence 1) [5471B724], AccurateRip returned [97487B14] Copy OK

Track 4

Filename D:\Music\100percentsrips\Various Artists - 1993 - Music From The Films Of Audrey Hepburn [FLAC]\04 - Funny Face.wav

Pre-gap length 0:00:01.25

Peak level 75.1 % Track quality 100.0 % Test CRC 9222257E Copy CRC 9222257E Cannot be verified as accurate (confidence 1) [36DED2FE], AccurateRip returned [D9BA0B96] Copy OK

Track 5

Filename D:\Music\100percentsrips\Various Artists - 1993 - Music From The Films Of Audrey Hepburn [FLAC]\05 - The Nun's Story.wav

Pre-gap length 0:00:02.09

Peak level 89.4 % Track quality 100.0 % Test CRC 0D85D9DC Copy CRC 0D85D9DC Cannot be verified as accurate (confidence 1) [76D3A76C], AccurateRip returned [5916E04C] Copy OK

Track 6

Filename D:\Music\100percentsrips\Various Artists - 1993 - Music From The Films Of Audrey Hepburn [FLAC]\06 - Wait Until Dark.wav

Pre-gap length 0:00:01.89

Peak level 64.6 % Track quality 100.0 % Test CRC 56C261BD Copy CRC 56C261BD Cannot be verified as accurate (confidence 1) [CB316ADD], AccurateRip returned [616562C9] Copy OK

Track 7

Filename D:\Music\100percentsrips\Various Artists - 1993 - Music From The Films Of Audrey Hepburn [FLAC]\07 - How To Steal A Million.wav

Pre-gap length 0:00:01.46

Peak level 66.8 % Track quality 100.0 % Test CRC 5D5BDEE5 Copy CRC 5D5BDEE5 Cannot be verified as accurate (confidence 1) [5D71F7F2], AccurateRip returned [F2ED180E] Copy OK

Track 8

Filename D:\Music\100percentsrips\Various Artists - 1993 - Music From The Films Of Audrey Hepburn [FLAC]\08 - Robin And Marian.wav

Pre-gap length 0:00:01.66

Peak level 87.8 % Track quality 100.0 % Test CRC 5EB1B1FA Copy CRC 5EB1B1FA Cannot be verified as accurate (confidence 1) [2D9FCAA8], AccurateRip returned [64366054] Copy OK

Track 9

Filename D:\Music\100percentsrips\Various Artists - 1993 - Music From The Films Of Audrey Hepburn [FLAC]\09 - Tho For The Road.wav

Pre-gap length 0:00:02.78

Peak level 61.3 % Track quality 100.0 % Test CRC 2FAD6606 Copy CRC 2FAD6606 Cannot be verified as accurate (confidence 1) [750216A0], AccurateRip returned [CE47118C] Copy OK

Track 10

Filename D:\Music\100percentsrips\Various Artists - 1993 - Music From The Films Of Audrey Hepburn [FLAC]\10 - Paris When It Sizzles.wav

Peak level 63.0 % Track quality 100.0 % Test CRC E9B7FA20 Copy CRC E9B7FA20 Cannot be verified as accurate (confidence 1) [3B593C65], AccurateRip returned [C06D39BD] Copy OK

Track 11

Filename D:\Music\100percentsrips\Various Artists - 1993 - Music From The Films Of Audrey Hepburn [FLAC]\11 - Moon River.wav

Peak level 88.4 % Track quality 100.0 % Test CRC 1AB79987 Copy CRC 1AB79987 Cannot be verified as accurate (confidence 1) [8F707248], AccurateRip returned [25BFA3B0] Copy OK

No tracks could be verified as accurateYou may have a different pressing from the one(s) in the database

No errors occurred

End of status report


Трекер:  [ 08-Июл-2011 22:38 ]

  

Скачать .torrent

Размер .torrent файла 13 KB


Размер: 151 MB
Хэш (hash) релиза: e2a498dfc8b692eef186928f490daf35bf21d3bb

Еще никто не оставлял запись к записи скачать торрент Various Artists - Music From The Films Of Audrey Hepburn . Будь первым!

!Обратная связь