Скачать через торрент музыку Престиж The Prestige бесплатно без регистрации torrent

Если у вас наблюдаются проблемы со скриншотами, переходом по ссылками, скачиванием торрентов - проблемы в блокировщике рекламы AdBlock. #хорошегоДня!


Статистика раздачи
Размер:  223 MB   |    Зарегистрирован:  6 лет 5 месяцев   |    .torrent скачан:  38 раз   |   
Раздают:  1  
   
Загрузка...
 
Автор Сообщение

Galfimbul

avatar Galfimbul


Престиж / The Prestige

Жанр: Score
Композитор: David Julyan
Год выпуска диска: 2006
Производитель диска: USA
Аудио кодек: FLAC
Тип рипа: tracks+.cue
Битрейт аудио: lossless
Продолжительность: 00:48:09

01 - The Pledge - Are You Watching Closely? (01:52)
02 - The Pledge - Colorado Springs (04:15)
03 - The Pledge - The Light Field (01:51)
04 - The Pledge - Borden Meets Sarah (02:12)
05 - The Pledge - Adagio For Julia (02:09)
06 - The Turn - A New Trick (04:30)
07 - The Turn - The Journal (02:55)
08 - The Turn - The Transported Man (02:37)
09 - The Turn - No, Not Today (02:32)
10 - The Turn - Caught (01:39)
11 - The Turn - Cutter Returns (02:13)
12 - The Turn - The Real Transported Man (02:29)
13 - The Turn - Man's Reach Exceeds His Imagination (02:08)
14 - The Turn - Goodbye To Jess (02:58)
15 - The Prestige - Sacrifice (05:15)
16 - The Prestige - The Price Of A Good Trick (05:06)
17 - The Prestige - The Prestige (01:40)

Источник: lztr.us
 
EAC extraction logfile from 25. July 2007, 11:27 for CDDavid Julyan / The Prestige

Used drive : HL-DT-STDVD-ROM GDR8163B Adapter: 0 ID: 0Read mode : Secure with NO C2, accurate stream, disable cacheRead offset correction : 48Overread into Lead-In and Lead-Out : No

Used output format : C:\Archivos de programa\FLAC\flac.exe (User Defined Encoder) 128 kBit/s Additional command line options : -8 -V -T "ARTIST=%a" -T "TITLE=%t" -T "ALBUM=%g" -T "DATE=%y" -T "TRACKNUMBER=%n" -T "GENRE=%m" -T "COMMENT=EAC Flac 1.1.4 -8" %s

Other options : Fill up missing offset samples with silence : Yes Delete leading and trailing silent blocks : No Native Win32 interface for Win NT & 2000

Track 1 Filename G:\eae\Descargas\Finalizadas\David Julyan - The Prestige (2006) [FLAC]\disc\01 - The Pledge - Are You Watching Closely .wav

Pre-gap length 0:00:02.00

Peak level 94.9 % Track quality 100.0 % Test CRC B5901D77 Copy CRC B5901D77 Copy OK

Track 2 Filename G:\eae\Descargas\Finalizadas\David Julyan - The Prestige (2006) [FLAC]\disc\02 - The Pledge - Colorado Springs.wav

Pre-gap length 0:00:00.48

Peak level 89.1 % Track quality 100.0 % Test CRC 5B93E2EC Copy CRC 5B93E2EC Copy OK

Track 3 Filename G:\eae\Descargas\Finalizadas\David Julyan - The Prestige (2006) [FLAC]\disc\03 - The Pledge - The Light Field.wav

Peak level 95.8 % Track quality 100.0 % Test CRC 4D312DD1 Copy CRC 4D312DD1 Copy OK

Track 4 Filename G:\eae\Descargas\Finalizadas\David Julyan - The Prestige (2006) [FLAC]\disc\04 - The Pledge - Borden Meets Sarah.wav

Peak level 66.7 % Track quality 100.0 % Test CRC 80EB77C4 Copy CRC 80EB77C4 Copy OK

Track 5 Filename G:\eae\Descargas\Finalizadas\David Julyan - The Prestige (2006) [FLAC]\disc\05 - The Pledge - Adagio For Julia.wav

Peak level 99.8 % Track quality 99.9 % Test CRC 886DEC40 Copy CRC 886DEC40 Copy OK

Track 6 Filename G:\eae\Descargas\Finalizadas\David Julyan - The Prestige (2006) [FLAC]\disc\06 - The Turn - A New Trick.wav

Pre-gap length 0:00:04.65

Peak level 98.2 % Track quality 100.0 % Test CRC 7B7C6EAD Copy CRC 7B7C6EAD Copy OK

Track 7 Filename G:\eae\Descargas\Finalizadas\David Julyan - The Prestige (2006) [FLAC]\disc\07 - The Turn - The Journal.wav

Peak level 54.6 % Track quality 100.0 % Test CRC C9D002F6 Copy CRC C9D002F6 Copy OK

Track 8 Filename G:\eae\Descargas\Finalizadas\David Julyan - The Prestige (2006) [FLAC]\disc\08 - The Turn - The Transported Man.wav

Peak level 99.7 % Track quality 100.0 % Test CRC B76CE655 Copy CRC B76CE655 Copy OK

Track 9 Filename G:\eae\Descargas\Finalizadas\David Julyan - The Prestige (2006) [FLAC]\disc\09 - The Turn - No, Not Today.wav

Pre-gap length 0:00:00.08

Peak level 47.4 % Track quality 100.0 % Test CRC 7876B6C7 Copy CRC 7876B6C7 Copy OK

Track 10 Filename G:\eae\Descargas\Finalizadas\David Julyan - The Prestige (2006) [FLAC]\disc\10 - The Turn - Caught.wav

Pre-gap length 0:00:00.06

Peak level 99.7 % Track quality 100.0 % Test CRC A3A3D83E Copy CRC A3A3D83E Copy OK

Track 11 Filename G:\eae\Descargas\Finalizadas\David Julyan - The Prestige (2006) [FLAC]\disc\11 - The Turn - Cutter Returns.wav

Peak level 61.4 % Track quality 100.0 % Test CRC 76445895 Copy CRC 76445895 Copy OK

Track 12 Filename G:\eae\Descargas\Finalizadas\David Julyan - The Prestige (2006) [FLAC]\disc\12 - The Turn - The Real Transported Man.wav

Peak level 99.8 % Track quality 100.0 % Test CRC 72D2793F Copy CRC 72D2793F Copy OK

Track 13 Filename G:\eae\Descargas\Finalizadas\David Julyan - The Prestige (2006) [FLAC]\disc\13 - The Turn - Man's Reach Exceeds His Imagination.wav

Pre-gap length 0:00:00.36

Peak level 95.3 % Track quality 99.9 % Test CRC 3427649C Copy CRC 3427649C Copy OK

Track 14 Filename G:\eae\Descargas\Finalizadas\David Julyan - The Prestige (2006) [FLAC]\disc\14 - The Turn - Goodbye To Jess.wav

Pre-gap length 0:00:00.18

Peak level 99.8 % Track quality 100.0 % Test CRC 37CB4885 Copy CRC 37CB4885 Copy OK

Track 15 Filename G:\eae\Descargas\Finalizadas\David Julyan - The Prestige (2006) [FLAC]\disc\15 - The Prestige - Sacrifice.wav

Pre-gap length 0:00:04.66

Peak level 99.8 % Track quality 100.0 % Test CRC A4AA0CBD Copy CRC A4AA0CBD Copy OK

Track 16 Filename G:\eae\Descargas\Finalizadas\David Julyan - The Prestige (2006) [FLAC]\disc\16 - The Prestige - The Price Of A Good Trick.wav

Pre-gap length 0:00:00.09

Peak level 99.8 % Track quality 100.0 % Test CRC C56D5089 Copy CRC C56D5089 Copy OK

Track 17 Filename G:\eae\Descargas\Finalizadas\David Julyan - The Prestige (2006) [FLAC]\disc\17 - The Prestige - The Prestige.wav

Pre-gap length 0:00:00.52

Peak level 99.8 % Track quality 100.0 % Test CRC D7A6D567 Copy CRC D7A6D567 Copy OK

No errors occured

End of status report
 
REM GENRE SoundtrackREM DATE 2006REM DISCID D70B5511REM COMMENT "ExactAudioCopy v0.95b4"PERFORMER "David Julyan"TITLE "The Prestige"FILE "01 - The Pledge - Are You Watching Closely .wav" WAVE TRACK 01 AUDIO TITLE "The Pledge - Are You Watching Closely?" PERFORMER "David Julyan" FLAGS DCP INDEX 01 00:00:00 TRACK 02 AUDIO TITLE "The Pledge - Colorado Springs" PERFORMER "David Julyan" FLAGS DCP INDEX 00 01:51:21FILE "02 - The Pledge - Colorado Springs.wav" WAVE INDEX 01 00:00:00FILE "03 - The Pledge - The Light Field.wav" WAVE TRACK 03 AUDIO TITLE "The Pledge - The Light Field" PERFORMER "David Julyan" FLAGS DCP INDEX 01 00:00:00FILE "04 - The Pledge - Borden Meets Sarah.wav" WAVE TRACK 04 AUDIO TITLE "The Pledge - Borden Meets Sarah" PERFORMER "David Julyan" FLAGS DCP INDEX 01 00:00:00FILE "05 - The Pledge - Adagio For Julia.wav" WAVE TRACK 05 AUDIO TITLE "The Pledge - Adagio For Julia" PERFORMER "David Julyan" FLAGS DCP INDEX 01 00:00:00 TRACK 06 AUDIO TITLE "The Turn - A New Trick" PERFORMER "David Julyan" FLAGS DCP INDEX 00 02:03:64FILE "06 - The Turn - A New Trick.wav" WAVE INDEX 01 00:00:00FILE "07 - The Turn - The Journal.wav" WAVE TRACK 07 AUDIO TITLE "The Turn - The Journal" PERFORMER "David Julyan" FLAGS DCP INDEX 01 00:00:00FILE "08 - The Turn - The Transported Man.wav" WAVE TRACK 08 AUDIO TITLE "The Turn - The Transported Man" PERFORMER "David Julyan" FLAGS DCP INDEX 01 00:00:00 TRACK 09 AUDIO TITLE "The Turn - No, Not Today" PERFORMER "David Julyan" FLAGS DCP INDEX 00 02:36:51FILE "09 - The Turn - No, Not Today.wav" WAVE INDEX 01 00:00:00 TRACK 10 AUDIO TITLE "The Turn - Caught" PERFORMER "David Julyan" FLAGS DCP INDEX 00 02:31:43FILE "10 - The Turn - Caught.wav" WAVE INDEX 01 00:00:00FILE "11 - The Turn - Cutter Returns.wav" WAVE TRACK 11 AUDIO TITLE "The Turn - Cutter Returns" PERFORMER "David Julyan" FLAGS DCP INDEX 01 00:00:00FILE "12 - The Turn - The Real Transported Man.wav" WAVE TRACK 12 AUDIO TITLE "The Turn - The Real Transported Man" PERFORMER "David Julyan" FLAGS DCP INDEX 01 00:00:00 TRACK 13 AUDIO TITLE "The Turn - Man's Reach Exceeds His Imagination" PERFORMER "David Julyan" FLAGS DCP INDEX 00 02:28:46FILE "13 - The Turn - Man's Reach Exceeds His Imagination.wav" WAVE INDEX 01 00:00:00 TRACK 14 AUDIO TITLE "The Turn - Goodbye To Jess" PERFORMER "David Julyan" FLAGS DCP INDEX 00 02:08:21FILE "14 - The Turn - Goodbye To Jess.wav" WAVE INDEX 01 00:00:00 TRACK 15 AUDIO TITLE "The Prestige - Sacrifice" PERFORMER "David Julyan" FLAGS DCP INDEX 00 02:53:50FILE "15 - The Prestige - Sacrifice.wav" WAVE INDEX 01 00:00:00 TRACK 16 AUDIO TITLE "The Prestige - The Price Of A Good Trick" PERFORMER "David Julyan" FLAGS DCP INDEX 00 05:15:28FILE "16 - The Prestige - The Price Of A Good Trick.wav" WAVE INDEX 01 00:00:00 TRACK 17 AUDIO TITLE "The Prestige - The Prestige" PERFORMER "David Julyan" FLAGS DCP INDEX 00 05:05:41FILE "17 - The Prestige - The Prestige.wav" WAVE INDEX 01 00:00:00



Трекер:  [ 08-Июл-2011 22:39 ]

  

Скачать .torrent

Размер .torrent файла 19 KB


Размер: 223 MB
Хэш (hash) релиза: 1431f50c8f0af19ef95d8158d20ceaaa5814b339

Торренты, похожие на Престиж The Prestige скачать торрент

Форум Название Автор Размер S L Добавлен
Саундтреки к фильмам и мультфильмам (mp3) ·· (Soundtrack) Престиж / The Prestige by David Julyan - 2006, MP3, 320kbps avg AqvaGen 122422584117 MB 0 0 1292266424

21:53

13-Дек-10

Еще никто не оставлял запись к записи скачать торрент Престиж The Prestige . Будь первым!

!Обратная связь