Скачать через торрент музыку David Lynch & Alan R. Splet - Eraserhead Original Soundtrack Plus - 2003, FLAC бесплатно без регистрации torrent

Если у вас наблюдаются проблемы со скриншотами, переходом по ссылками, скачиванием торрентов - проблемы в блокировщике рекламы AdBlock. #хорошегоДня!


Статистика раздачи
Размер:  229 MB   |    Зарегистрирован:  6 лет 5 месяцев   |    .torrent скачан:  38 раз   |   
Раздают:  1  
   
Загрузка...
 
Автор Сообщение

Galfimbul

avatar Galfimbul


David Lynch & Alan R. Splet - Eraserhead Original Soundtrack Plus



Жанр: Soundtrack
Год выпуска диска: 2003
Производитель диска: USA
Аудио кодек: FLAC
Тип рипа: image+.cue
Продолжительность: 48:54
Трэклист:
1 Side One (20:09)
2 Side Two (18:29)
3 Eraserhead Dance Mix (10:16)
 
Exact Audio Copy V0.99 prebeta 4 from 23. January 2008

EAC extraction logfile from 22. November 2008, 23:30

Various / Eraserhead Soundtrack

Used drive : ASUS CB-5216A Adapter: 1 ID: 1

Read mode : SecureUtilize accurate stream : YesDefeat audio cache : YesMake use of C2 pointers : No

Read offset correction : 6Overread into Lead-In and Lead-Out : NoFill up missing offset samples with silence : YesDelete leading and trailing silent blocks : NoNull samples used in CRC calculations : YesUsed interface : Native Win32 interface for Win NT & 2000

Used output format : User Defined EncoderSelected bitrate : 1024 kBit/sQuality : HighAdd ID3 tag : NoCommand line compressor : C:\Program Files\Exact Audio Copy\FLAC\FLAC.EXEAdditional command line options : -6 -V -T "ARTIST=%a" -T "TITLE=%t" -T "ALBUM=%g" -T "DATE=%y" -T "TRACKNUMBER=%n" -T "GENRE=%m" -T "COMMENT=%e" %s -o %d

TOC of the extracted CD

Track | Start | Length | Start sector | End sector --------------------------------------------------------- 1 | 0:00.00 | 20:09.32 | 0 | 90706 2 | 20:09.32 | 18:29.35 | 90707 | 173916 3 | 38:38.67 | 10:16.08 | 173917 | 220124

Range status and errors

Selected range

Filename E:\раздача\eraserhead\Various - Eraserhead Soundtrack.wav

Peak level 100.0 % Range quality 100.0 % Test CRC CE6235B8 Copy CRC CE6235B8 Copy OK

No errors occurred

AccurateRip summary

Track 1 not present in databaseTrack 2 not present in databaseTrack 3 not present in database

None of the tracks are present in the AccurateRip database

End of status report


Трекер:  [ 08-Июл-2011 22:39 ]

  

Скачать .torrent

Размер .torrent файла 19 KB


Размер: 229 MB
Хэш (hash) релиза: a0d9a03f047d04cc74d85690392916be9d0c04fb

Еще никто не оставлял запись к записи скачать торрент David Lynch & Alan R. Splet - Eraserhead Original Soundtrack Plus - 2003, FLAC . Будь первым!

!Обратная связь