Скачать через торрент музыку Criss Angel Mindfreak - 2006, FLAC бесплатно без регистрации torrent

Если у вас наблюдаются проблемы со скриншотами, переходом по ссылками, скачиванием торрентов - проблемы в блокировщике рекламы AdBlock. #хорошегоДня!


Статистика раздачи
Размер:  464 MB   |    Зарегистрирован:  6 лет 5 месяцев   |    .torrent скачан:  39 раз   |   
Раздают:  1  
   
Загрузка...
 
Автор Сообщение

Galfimbul

avatar Galfimbul


Criss Angel Mindfreak

Жанр: Soundtrack / Techno / Industrial
Год выпуска диска: 2006
Производитель диска: USA
Аудио кодек: FLAC
Тип рипа: tracks+.cue
Битрейт аудио: lossless
Продолжительность: 1:04:26

Трэклист:
1. Mindfreak (3:47)
2. MF2 (3:48)
3. Mindfreak (Celldweller Remix) (6:06)
4. Come Alive (2:47)
5. Down (3:16)
6. Fear (3:08)
7. XTC (3:45)
8. D.A.M. (3:30)
9. Die For Me (2:58)
10. Underground (2:54)
11. Procreation (3:56)
12. Do You Know (1:38)
13. Mystify (1:56)
14. Fly (2:32)
15. Now I Die (2:26)
16. Carmela (2:58)
17. Awake (3:02)
18. Fight (2:15)
19. Mindfreak (Desert Remix) (4:10)
20. Goodbye (1:49)
21. Mindfreak (Season 1 Theme) (0:55)
22. Mindfreak (Season 2 Theme) (0:50)
 
EAC extraction logfile from 26. August 2008, 23:45 for CDCriss Angel / Mindfreak

Used drive : TEAC DV-516G Adapter: 0 ID: 1Read mode : Secure with NO C2, accurate stream, disable cacheRead offset correction : 6Overread into Lead-In and Lead-Out : No

Used output format : C:\Program Files\Exact Audio Copy\flac.exe (User Defined Encoder) 192 kBit/s Additional command line options : -8 -A tukey(0.25) -A gauss(0.1875) -b 4096 -V -T "artist=%a" -T "title=%t" -T "album=%g" -T "date=%y" -T "tracknumber=%n" -T "genre=%m" %s --sector-align

Other options : Fill up missing offset samples with silence : Yes Delete leading and trailing silent blocks : No Installed external ASPI interface

Track 1 Filename I:\Criss Angel\Mindfreak.wav

Pre-gap length 0:00:02.00

Peak level 100.0 % Track quality 100.0 % Test CRC EAE487A3 Copy CRC EAE487A3 Copy OK

Track 2 Filename I:\Criss Angel\MF2.wav

Peak level 100.0 % Track quality 100.0 % Test CRC 24AD9EBE Copy CRC 24AD9EBE Copy OK

Track 3 Filename I:\Criss Angel\Mindfreak (Celldweller Remix).wav

Peak level 98.8 % Track quality 99.9 % Test CRC 6427352F Copy CRC 6427352F Copy OK

Track 4 Filename I:\Criss Angel\Come Alive.wav

Peak level 98.8 % Track quality 100.0 % Test CRC 38523D49 Copy CRC 38523D49 Copy OK

Track 5 Filename I:\Criss Angel\Down.wav

Peak level 99.0 % Track quality 100.0 % Test CRC DCBA9A72 Copy CRC DCBA9A72 Copy OK

Track 6 Filename I:\Criss Angel\Fear.wav

Peak level 100.0 % Track quality 100.0 % Test CRC 439CBDB4 Copy CRC 439CBDB4 Copy OK

Track 7 Filename I:\Criss Angel\XTC.wav

Peak level 100.0 % Track quality 99.9 % Test CRC E0823F51 Copy CRC E0823F51 Copy OK

Track 8 Filename I:\Criss Angel\D.A.M..wav

Peak level 98.7 % Track quality 99.0 % Test CRC AE85D71B Copy CRC AE85D71B Copy OK

Track 9 Filename I:\Criss Angel\Die For Me.wav

Peak level 100.0 % Track quality 100.0 % Test CRC 5A517539 Copy CRC 5A517539 Copy OK

Track 10 Filename I:\Criss Angel\Underground.wav

Peak level 99.9 % Track quality 100.0 % Test CRC 5802BFA5 Copy CRC 5802BFA5 Copy OK

Track 11 Filename I:\Criss Angel\Procreation.wav

Peak level 100.0 % Track quality 100.0 % Test CRC 64ECBF9D Copy CRC 64ECBF9D Copy OK

Track 12 Filename I:\Criss Angel\Do You Know.wav

Peak level 96.4 % Track quality 100.0 % Test CRC 1EB51854 Copy CRC 1EB51854 Copy OK

Track 13 Filename I:\Criss Angel\Mystify.wav

Peak level 99.0 % Track quality 99.7 % Test CRC 7A809E04 Copy CRC 7A809E04 Copy OK

Track 14 Filename I:\Criss Angel\Fly.wav

Peak level 100.0 % Track quality 100.0 % Test CRC 7128518E Copy CRC 7128518E Copy OK

Track 15 Filename I:\Criss Angel\Now I Die.wav

Peak level 98.0 % Track quality 100.0 % Test CRC B92BF132 Copy CRC B92BF132 Copy OK

Track 16 Filename I:\Criss Angel\Carmela.wav

Peak level 100.0 % Track quality 100.0 % Test CRC 02D20A39 Copy CRC 02D20A39 Copy OK

Track 17 Filename I:\Criss Angel\Awake.wav

Peak level 100.0 % Track quality 99.9 % Test CRC A002426D Copy CRC A002426D Copy OK

Track 18 Filename I:\Criss Angel\Fight.wav

Peak level 100.0 % Track quality 100.0 % Test CRC 46864A11 Copy CRC 46864A11 Copy OK

Track 19 Filename I:\Criss Angel\Mindfreak (Desert Remix).wav

Peak level 100.0 % Track quality 100.0 % Test CRC C8BC043C Copy CRC C8BC043C Copy OK

Track 20 Filename I:\Criss Angel\Goodbye.wav

Peak level 99.9 % Track quality 99.8 % Test CRC B0B00190 Copy CRC B0B00190 Copy OK

Track 21 Filename I:\Criss Angel\Mindfreak (Season 1 Theme).wav

Peak level 100.0 % Track quality 100.0 % Test CRC 6B3FE00A Copy CRC 6B3FE00A Copy OK

Track 22 Filename I:\Criss Angel\Mindfreak (Season 2 Theme).wav

Peak level 100.0 % Track quality 100.0 % Test CRC C563C4D6 Copy CRC C563C4D6 Copy OK

No errors occured

End of status report


Трекер:  [ 08-Июл-2011 22:41 ]

  

Скачать .torrent

Размер .torrent файла 19 KB


Размер: 464 MB
Хэш (hash) релиза: a4c70826034edf677ba61a7e71eafa02468d30ab

Еще никто не оставлял запись к записи скачать торрент Criss Angel Mindfreak - 2006, FLAC . Будь первым!

!Обратная связь