Скачать через торрент музыку Принцесса и лягушка The Princess and The Frog бесплатно без регистрации torrent

Если у вас наблюдаются проблемы со скриншотами, переходом по ссылками, скачиванием торрентов - проблемы в блокировщике рекламы AdBlock. #хорошегоДня!


Статистика раздачи
Размер:  436 MB   |    Зарегистрирован:  6 лет 5 месяцев   |    .torrent скачан:  35 раз   |   
Раздают:  1  
   
Загрузка...
 
Автор Сообщение

Galfimbul

avatar Galfimbul


Принцесса и лягушка / The Princess and The Frog
(Portugese Version)
Randy Newman, VA

Жанр: Soundtrack
Год выпуска диска: 2009
Производитель диска: Walt Disney Records
Аудио кодек: FLAC
Тип рипа: tracks+.cue
Битрейт аудио: lossless
Продолжительность: 01:00:51
Трэклист:
01. Never knew i needed (03:38)
02. Down in New Orleans (prologue) (00:27)
03. Down in New Orleans (02:26)
04. Almost there (02:24)
05. Friends on the other side (03:34)
06. When we're human (02:22)
07. Gonna take you there (01:46)
08. Ma belle Evangeline (01:55)
09. Dig a little deeper (02:47)
10. Down in New Orleans (finale) (01:37)
11. Fairy tale - Going home (04:17)
12. I know this story (05:27)
13. The frog hunters - Gator down (06:04)
14. Tiana's bad dream (06:22)
15. Ray laid low (03:21)
16. Ray/Mama Odie (04:01)
17. This is gonna be Good (03:20)
18. Lá em Nova Orleans (down in New Orleans)(exclusive track) (02:28)
19. Quase lá (almost there) (exclusive track) (02:27)
 
Exact Audio Copy V0.99 prebeta 4 from 23. January 2008

EAC extraction logfile from 10. December 2009, 23:10

Randy Newman & Various / The Princess and the Frog

Used drive : HL-DT-STDVD-RW_GSA-H41N Adapter: 1 ID: 0

Read mode : SecureUtilize accurate stream : YesDefeat audio cache : YesMake use of C2 pointers : No

Read offset correction : 667Overread into Lead-In and Lead-Out : NoFill up missing offset samples with silence : YesDelete leading and trailing silent blocks : NoNull samples used in CRC calculations : NoUsed interface : Native Win32 interface for Win NT & 2000Gap handling : Appended to previous track

Used output format : Internal WAV RoutinesSample format : 44.100 Hz; 16 Bit; Stereo

TOC of the extracted CD

Track | Start | Length | Start sector | End sector --------------------------------------------------------- 1 | 0:00.00 | 3:38.00 | 0 | 16349 2 | 3:38.00 | 0:27.55 | 16350 | 18429 3 | 4:05.55 | 2:26.61 | 18430 | 29440 4 | 6:32.41 | 2:24.32 | 29441 | 40272 5 | 8:56.73 | 3:34.71 | 40273 | 56393 6 | 12:31.69 | 2:22.08 | 56394 | 67051 7 | 14:54.02 | 1:46.29 | 67052 | 75030 8 | 16:40.31 | 1:55.52 | 75031 | 83707 9 | 18:36.08 | 2:47.70 | 83708 | 96302 10 | 21:24.03 | 1:37.52 | 96303 | 103629 11 | 23:01.55 | 4:17.05 | 103630 | 122909 12 | 27:18.60 | 5:27.23 | 122910 | 147457 13 | 32:46.08 | 6:04.19 | 147458 | 174776 14 | 38:50.27 | 6:22.14 | 174777 | 203440 15 | 45:12.41 | 3:21.66 | 203441 | 218581 16 | 48:34.32 | 4:01.11 | 218582 | 236667 17 | 52:35.43 | 3:20.01 | 236668 | 251668 18 | 55:55.44 | 2:28.66 | 251669 | 262834 19 | 58:24.35 | 2:27.06 | 262835 | 273865

Track 1

Filename C:\Documents and Settings\RASS\Meus documentos\EAC rip\01- Ne-Yo - Never Knew I Needed.wav

Pre-gap length 0:00:02.00

Peak level 100.0 % Track quality 100.0 % Copy CRC C72BCA1F Copy OK

Track 2

Filename C:\Documents and Settings\RASS\Meus documentos\EAC rip\02- Anika Noni Rose - Down in New Orleans (Prologue).wav

Pre-gap length 0:00:00.74

Peak level 98.9 % Track quality 100.0 % Copy CRC 64055EBF Copy OK

Track 3

Filename C:\Documents and Settings\RASS\Meus documentos\EAC rip\03- Dr. John - Down in New Orleans.wav

Peak level 100.0 % Track quality 100.0 % Copy CRC 865BD077 Copy OK

Track 4

Filename C:\Documents and Settings\RASS\Meus documentos\EAC rip\04- Anika Noni Rose - Almost There.wav

Pre-gap length 0:00:01.29

Peak level 100.0 % Track quality 99.9 % Copy CRC 77FFC332 Copy OK

Track 5

Filename C:\Documents and Settings\RASS\Meus documentos\EAC rip\05- Keith David - Friends on the Other Side.wav

Peak level 100.0 % Track quality 100.0 % Copy CRC 6C4DD9D0 Copy OK

Track 6

Filename C:\Documents and Settings\RASS\Meus documentos\EAC rip\06- Michael Leon-Wooley - When We're Human.wav

Peak level 100.0 % Track quality 99.9 % Copy CRC CC6B1022 Copy OK

Track 7

Filename C:\Documents and Settings\RASS\Meus documentos\EAC rip\07- Jim Cummings - Gonna Take You There.wav

Peak level 100.0 % Track quality 99.7 % Copy CRC 481A15D1 Copy OK

Track 8

Filename C:\Documents and Settings\RASS\Meus documentos\EAC rip\08- Jim Cummings - Ma Belle Evangeline.wav

Pre-gap length 0:00:02.27

Peak level 100.0 % Track quality 99.9 % Copy CRC 5A3635F5 Copy OK

Track 9

Filename C:\Documents and Settings\RASS\Meus documentos\EAC rip\09- Jennifer Lewis - Dig a Little Deeper.wav

Peak level 100.0 % Track quality 100.0 % Copy CRC C6EA35E2 Copy OK

Track 10

Filename C:\Documents and Settings\RASS\Meus documentos\EAC rip\10- Anika Noni Rose - Down in New Orleans (Finale).wav

Peak level 100.0 % Track quality 100.0 % Copy CRC 69A593DD Copy OK

Track 11

Filename C:\Documents and Settings\RASS\Meus documentos\EAC rip\11- Fairy Tale,Going Home (Score).wav

Pre-gap length 0:00:02.15

Peak level 98.7 % Track quality 100.0 % Copy CRC B129E03C Copy OK

Track 12

Filename C:\Documents and Settings\RASS\Meus documentos\EAC rip\12- I Know This Story (Score).wav

Peak level 99.4 % Track quality 100.0 % Copy CRC 9E67B444 Copy OK

Track 13

Filename C:\Documents and Settings\RASS\Meus documentos\EAC rip\13- The Frog Hunters,Gator Down (Score).wav

Pre-gap length 0:00:01.05

Peak level 99.5 % Track quality 99.9 % Copy CRC BE056F34 Copy OK

Track 14

Filename C:\Documents and Settings\RASS\Meus documentos\EAC rip\14- Tiana's Bad Dream (Score).wav

Peak level 98.9 % Track quality 99.8 % Copy CRC 5DDC8306 Copy OK

Track 15

Filename C:\Documents and Settings\RASS\Meus documentos\EAC rip\15- Ray Laid Low (Score).wav

Peak level 98.6 % Track quality 99.9 % Copy CRC 89EE5364 Copy OK

Track 16

Filename C:\Documents and Settings\RASS\Meus documentos\EAC rip\16- Ray,Mama Odie (Score).wav

Peak level 68.1 % Track quality 99.8 % Copy CRC 706F1010 Copy OK

Track 17

Filename C:\Documents and Settings\RASS\Meus documentos\EAC rip\17- This Is Gonna Be Good (Score).wav

Pre-gap length 0:00:01.00

Peak level 99.2 % Track quality 99.8 % Copy CRC 2773585C Copy OK

Track 18

Filename C:\Documents and Settings\RASS\Meus documentos\EAC rip\18- Jairo Bonfim - Lб em Nova Orleans (Down in New Orleans) (Only in Brazil).wav

Peak level 99.2 % Track quality 100.0 % Copy CRC DEE20EE5 Copy OK

Track 19

Filename C:\Documents and Settings\RASS\Meus documentos\EAC rip\19- Kacau Gomes - Quase Lб (Almost There) (Only in Brazil).wav

Pre-gap length 0:00:01.57

Peak level 99.2 % Track quality 100.0 % Copy CRC 68942A95 Copy OK

No errors occurred

End of status report
Complete artwork included @300dpi

Трекер:  [ 08-Июл-2011 22:45 ]

  

Скачать .torrent

Размер .torrent файла 20 KB


Размер: 436 MB
Хэш (hash) релиза: 42549bd858b91c1bdc851627521be934fac41f79

Торренты, похожие на Принцесса и лягушка The Princess and The Frog скачать торрент

Форум Название Автор Размер S L Добавлен
Саундтреки к фильмам и мультфильмам (mp3) ·· (Soundtrack) Принцесса и лягушка / The Princess And The Frog (Randy Newman & VA) - 2009, MP3 (tracks), 320 kbps Galfimbul 134287360128 MB 0 0 1292268056

22:20

13-Дек-10

Саундтреки к фильмам и мультфильмам (mp3) ·· (Soundtrack) Принцесса и лягушка / The Princess and The Frog (Portugese Version) (Randy Newman, VA) - 2009, MP3 (tracks), 320 kbps Galfimbul 146143155139 MB 0 0 1292266412

21:53

13-Дек-10

Еще никто не оставлял запись к записи скачать торрент Принцесса и лягушка The Princess and The Frog . Будь первым!

!Обратная связь