Скачать через торрент музыку Wristcutters: A Love Story Самоубийцы: История любви - 2007, FLAC бесплатно без регистрации torrent

Если у вас наблюдаются проблемы со скриншотами, переходом по ссылками, скачиванием торрентов - проблемы в блокировщике рекламы AdBlock. #хорошегоДня!


Статистика раздачи
Размер:  299 MB   |    Зарегистрирован:  6 лет 5 месяцев   |    .torrent скачан:  34 раза   |   
Раздают:  1  
   
Загрузка...
 
Автор Сообщение

Galfimbul

avatar Galfimbul


Wristcutters: A Love Story / Самоубийцы: История любви

Жанр: Soundtrack
Год выпуска диска: 2007
Производитель диска: USA
Аудио кодек: FLAC
Тип рипа: tracks+.cue
Битрейт аудио: lossless
Продолжительность: 00:51:59
Трэклист:
01. Bobby Johnston - Miracles
02. Gogol Bordello - Through the Roof 'n' Underground
03. Bobby Johnston - An Even Worse Place
04. Bobby Johnston - Are You Sorry Now
05. Joy Division - Love Will Tear Us Apart
06. Bobby Johnston - An Ex-Girlfriend From an Ex-Life
07. Bobby Johnston - One Good Reason For Living
08. Gogol Bordello - Occurrence on the Border (Hopping On A Pogo-Gypsy Stick)
09. Mikal Portnoi Lazarev - Love Song
10. Bobby Johnston - We're All Immigrants
11. Del Shannon - Cry Myself to Sleep
12. Bobby Johnston - Zia and Mikal
13. Bobby Johnston - The Beach
14. Gogol Bordello - Huliganjetta
15. Bobby Johnston - He Feels So Close
16. Bobby Johnston - You Remember What It's Like
17. Screaming Lord Sutch - She's Fallen In Love With a Monster Man
18. Bobby Johnston - Kneller and the Happy Campers
19. Bobby Johnston - Parents, Prisoners, and the PIC
20. Artie Shaw - Gloomy Sunday
21. Bobby Johnston - You Look Exactly the Same
22. Bobby Johnston - Everything Reminded me of You
23. Mushman - Brennan's Theme
24. Bobby Johnston - People in High Places
25. Gram Parsons - A Song for You
X Lossless Decoder version 20090215 (100.1)

XLD extraction logfile from 2009-02-21 14:11:05 -0600

Various / Wristcutters a Love Story - Soundtrack

Used drive : MATSHITA DVD-R UJ-857 (revision HAEA)

Use cdparanoia mode : YES (CDParanoia III 10.2 engine)
Disable audio cache : OK for the drive with cache less than 2750KB
Make use of C2 pointers : NO
Read offset correction : 102
Max retry count : 100

TOC of the extracted CD
Track | Start | Length | Start sector | End sector
---------------------------------------------------------
1 | 00:00:00 | 00:16:59 | 0 | 1258
2 | 00:16:59 | 05:29:37 | 1259 | 25970
3 | 05:46:21 | 00:38:66 | 25971 | 28886
4 | 06:25:12 | 00:25:46 | 28887 | 30807
5 | 06:50:58 | 03:22:45 | 30808 | 46002
6 | 10:13:28 | 01:15:29 | 46003 | 51656
7 | 11:28:57 | 01:12:24 | 51657 | 57080
8 | 12:41:06 | 03:26:37 | 57081 | 72567
9 | 16:07:43 | 01:17:11 | 72568 | 78353
10 | 17:24:54 | 00:48:11 | 78354 | 81964
11 | 18:12:65 | 02:18:66 | 81965 | 92380
12 | 20:31:56 | 01:28:16 | 92381 | 98996
13 | 21:59:72 | 02:11:33 | 98997 | 108854
14 | 24:11:30 | 05:36:54 | 108855 | 134108
15 | 29:48:09 | 00:43:24 | 134109 | 137357
16 | 30:31:33 | 00:31:51 | 137358 | 139733
17 | 31:03:09 | 02:52:01 | 139734 | 152634
18 | 33:55:10 | 01:14:42 | 152635 | 158226
19 | 35:09:52 | 01:15:28 | 158227 | 163879
20 | 36:25:05 | 03:34:70 | 163880 | 179999
21 | 40:00:00 | 00:55:67 | 180000 | 184191
22 | 40:55:67 | 01:18:69 | 184192 | 190110
23 | 42:14:61 | 03:19:74 | 190111 | 205109
24 | 45:34:60 | 01:42:58 | 205110 | 212817
25 | 47:17:43 | 04:55:48 | 212818 | 234990

Track 01
Filename : /Users/ren/Music/rips/01 - Bobby Johnston - Miracles.flac

CRC32 hash (test run) : 2AB572E0
CRC32 hash : 2AB572E0
CRC32 hash (skip zero) : 21E385C2
AccurateRip signature : B29FB9D5
->Accurately ripped! (confidence 2)
Statistics
Read error : 0
Skipped (treated as error) : 0
Edge jitter error (maybe fixed) : 0
Atom jitter error (maybe fixed) : 0
Drift error (maybe fixed) : 0
Dropped bytes error (maybe fixed) : 0
Duplicated bytes error (maybe fixed) : 0
Inconsistency in error sectors : 0

Track 02
Filename : /Users/ren/Music/rips/02 - Gogol Bordello - Through the Roof 'n' Underground.flac

CRC32 hash (test run) : C5AB381B
CRC32 hash : C5AB381B
CRC32 hash (skip zero) : 6351FF6F
AccurateRip signature : 1D46CC9B
->Accurately ripped! (confidence 2)
Statistics
Read error : 0
Skipped (treated as error) : 0
Edge jitter error (maybe fixed) : 0
Atom jitter error (maybe fixed) : 0
Drift error (maybe fixed) : 0
Dropped bytes error (maybe fixed) : 0
Duplicated bytes error (maybe fixed) : 0
Inconsistency in error sectors : 0

Track 03
Filename : /Users/ren/Music/rips/03 - Bobby Johnston - An Even Worse Place.flac

CRC32 hash (test run) : C907A620
CRC32 hash : C907A620
CRC32 hash (skip zero) : 382A1A96
AccurateRip signature : B6A63D39
->Accurately ripped! (confidence 2)
Statistics
Read error : 0
Skipped (treated as error) : 0
Edge jitter error (maybe fixed) : 0
Atom jitter error (maybe fixed) : 0
Drift error (maybe fixed) : 0
Dropped bytes error (maybe fixed) : 0
Duplicated bytes error (maybe fixed) : 0
Inconsistency in error sectors : 0

Track 04
Filename : /Users/ren/Music/rips/04 - Bobby Johnston - Are You Sorry Now.flac

CRC32 hash (test run) : CD0EBF3E
CRC32 hash : CD0EBF3E
CRC32 hash (skip zero) : 4FC44F67
AccurateRip signature : 669BFA18
->Accurately ripped! (confidence 2)
Statistics
Read error : 0
Skipped (treated as error) : 0
Edge jitter error (maybe fixed) : 0
Atom jitter error (maybe fixed) : 0
Drift error (maybe fixed) : 0
Dropped bytes error (maybe fixed) : 0
Duplicated bytes error (maybe fixed) : 0
Inconsistency in error sectors : 0

Track 05
Filename : /Users/ren/Music/rips/05 - Joy Division - Love Will Tear Us Apart.flac

CRC32 hash (test run) : F8197776
CRC32 hash : F8197776
CRC32 hash (skip zero) : 3A270A5F
AccurateRip signature : 464F84C1
->Accurately ripped! (confidence 2)
Statistics
Read error : 0
Skipped (treated as error) : 0
Edge jitter error (maybe fixed) : 0
Atom jitter error (maybe fixed) : 0
Drift error (maybe fixed) : 0
Dropped bytes error (maybe fixed) : 0
Duplicated bytes error (maybe fixed) : 0
Inconsistency in error sectors : 0

Track 06
Filename : /Users/ren/Music/rips/06 - Bobby Johnston - An Ex-Girlfriend From an Ex-Life.flac

CRC32 hash (test run) : 27D7BD05
CRC32 hash : 27D7BD05
CRC32 hash (skip zero) : D7AC1418
AccurateRip signature : 1FFB06E6
->Accurately ripped! (confidence 2)
Statistics
Read error : 0
Skipped (treated as error) : 0
Edge jitter error (maybe fixed) : 0
Atom jitter error (maybe fixed) : 0
Drift error (maybe fixed) : 0
Dropped bytes error (maybe fixed) : 0
Duplicated bytes error (maybe fixed) : 0
Inconsistency in error sectors : 0

Track 07
Filename : /Users/ren/Music/rips/07 - Bobby Johnston - One Good Reason For Living.flac

CRC32 hash (test run) : D0EF4AEC
CRC32 hash : D0EF4AEC
CRC32 hash (skip zero) : 67FDC70C
AccurateRip signature : 8E621D43
->Accurately ripped! (confidence 2)
Statistics
Read error : 0
Skipped (treated as error) : 0
Edge jitter error (maybe fixed) : 0
Atom jitter error (maybe fixed) : 0
Drift error (maybe fixed) : 0
Dropped bytes error (maybe fixed) : 0
Duplicated bytes error (maybe fixed) : 0
Inconsistency in error sectors : 0

Track 08
Filename : /Users/ren/Music/rips/08 - Gogol Bordello - Occurrence on the Border (Hopping On A Pogo-Gypsy Stick).flac

CRC32 hash (test run) : D266F30F
CRC32 hash : D266F30F
CRC32 hash (skip zero) : FD718B3C
AccurateRip signature : C230F2C1
->Accurately ripped! (confidence 2)
Statistics
Read error : 0
Skipped (treated as error) : 0
Edge jitter error (maybe fixed) : 0
Atom jitter error (maybe fixed) : 0
Drift error (maybe fixed) : 0
Dropped bytes error (maybe fixed) : 0
Duplicated bytes error (maybe fixed) : 0
Inconsistency in error sectors : 0

Track 09
Filename : /Users/ren/Music/rips/09 - Mikal Portnoi Lazarev - Love Song.flac

CRC32 hash (test run) : 97D6F292
CRC32 hash : 97D6F292
CRC32 hash (skip zero) : F284DD4C
AccurateRip signature : A4D47C69
->Accurately ripped! (confidence 2)
Statistics
Read error : 0
Skipped (treated as error) : 0
Edge jitter error (maybe fixed) : 0
Atom jitter error (maybe fixed) : 0
Drift error (maybe fixed) : 0
Dropped bytes error (maybe fixed) : 0
Duplicated bytes error (maybe fixed) : 0
Inconsistency in error sectors : 0

Track 10
Filename : /Users/ren/Music/rips/10 - Bobby Johnston - We're All Immigrants.flac

CRC32 hash (test run) : 0114CC56
CRC32 hash : 0114CC56
CRC32 hash (skip zero) : 69BDAB53
AccurateRip signature : AC461F5B
->Accurately ripped! (confidence 2)
Statistics
Read error : 0
Skipped (treated as error) : 0
Edge jitter error (maybe fixed) : 0
Atom jitter error (maybe fixed) : 0
Drift error (maybe fixed) : 0
Dropped bytes error (maybe fixed) : 0
Duplicated bytes error (maybe fixed) : 0
Inconsistency in error sectors : 0

Track 11
Filename : /Users/ren/Music/rips/11 - Del Shannon - Cry Myself to Sleep.flac

CRC32 hash (test run) : 837D71C2
CRC32 hash : 837D71C2
CRC32 hash (skip zero) : 070C1C31
AccurateRip signature : F07E0CC8
->Accurately ripped! (confidence 2)
Statistics
Read error : 0
Skipped (treated as error) : 0
Edge jitter error (maybe fixed) : 0
Atom jitter error (maybe fixed) : 0
Drift error (maybe fixed) : 0
Dropped bytes error (maybe fixed) : 0
Duplicated bytes error (maybe fixed) : 0
Inconsistency in error sectors : 0

Track 12
Filename : /Users/ren/Music/rips/12 - Bobby Johnston - Zia and Mikal.flac

CRC32 hash (test run) : 4EFBD804
CRC32 hash : 4EFBD804
CRC32 hash (skip zero) : 6CFA009B
AccurateRip signature : 1B8C20BB
->Accurately ripped! (confidence 2)
Statistics
Read error : 0
Skipped (treated as error) : 0
Edge jitter error (maybe fixed) : 0
Atom jitter error (maybe fixed) : 0
Drift error (maybe fixed) : 0
Dropped bytes error (maybe fixed) : 0
Duplicated bytes error (maybe fixed) : 0
Inconsistency in error sectors : 0

Track 13
Filename : /Users/ren/Music/rips/13 - Bobby Johnston - The Beach.flac

CRC32 hash (test run) : 59097F57
CRC32 hash : 59097F57
CRC32 hash (skip zero) : 86786A59
AccurateRip signature : 19D538A0
->Accurately ripped! (confidence 2)
Statistics
Read error : 0
Skipped (treated as error) : 0
Edge jitter error (maybe fixed) : 0
Atom jitter error (maybe fixed) : 0
Drift error (maybe fixed) : 0
Dropped bytes error (maybe fixed) : 0
Duplicated bytes error (maybe fixed) : 0
Inconsistency in error sectors : 0

Track 14
Filename : /Users/ren/Music/rips/14 - Gogol Bordello - Huliganjetta.flac

CRC32 hash (test run) : 16C72361
CRC32 hash : 16C72361
CRC32 hash (skip zero) : 84F696B9
AccurateRip signature : 50947E3B
->Accurately ripped! (confidence 2)
Statistics
Read error : 0
Skipped (treated as error) : 0
Edge jitter error (maybe fixed) : 0
Atom jitter error (maybe fixed) : 0
Drift error (maybe fixed) : 0
Dropped bytes error (maybe fixed) : 0
Duplicated bytes error (maybe fixed) : 0
Inconsistency in error sectors : 0

Track 15
Filename : /Users/ren/Music/rips/15 - Bobby Johnston - He Feels So Close.flac

CRC32 hash (test run) : FBC0DAE8
CRC32 hash : FBC0DAE8
CRC32 hash (skip zero) : 2475FAC2
AccurateRip signature : 274002F9
->Accurately ripped! (confidence 2)
Statistics
Read error : 0
Skipped (treated as error) : 0
Edge jitter error (maybe fixed) : 0
Atom jitter error (maybe fixed) : 0
Drift error (maybe fixed) : 0
Dropped bytes error (maybe fixed) : 0
Duplicated bytes error (maybe fixed) : 0
Inconsistency in error sectors : 0

Track 16
Filename : /Users/ren/Music/rips/16 - Bobby Johnston - You Remember What It's Like.flac

CRC32 hash (test run) : 88A53A80
CRC32 hash : 88A53A80
CRC32 hash (skip zero) : 25388B37
AccurateRip signature : 7EC805C0
->Accurately ripped! (confidence 2)
Statistics
Read error : 0
Skipped (treated as error) : 0
Edge jitter error (maybe fixed) : 0
Atom jitter error (maybe fixed) : 0
Drift error (maybe fixed) : 0
Dropped bytes error (maybe fixed) : 0
Duplicated bytes error (maybe fixed) : 0
Inconsistency in error sectors : 0

Track 17
Filename : /Users/ren/Music/rips/17 - Screaming Lord Sutch - She's Fallen In Love With a Monster Man.flac

CRC32 hash (test run) : 95B0979A
CRC32 hash : 95B0979A
CRC32 hash (skip zero) : 7FFFB992
AccurateRip signature : 7D324BC9
->Accurately ripped! (confidence 2)
Statistics
Read error : 0
Skipped (treated as error) : 0
Edge jitter error (maybe fixed) : 0
Atom jitter error (maybe fixed) : 0
Drift error (maybe fixed) : 0
Dropped bytes error (maybe fixed) : 0
Duplicated bytes error (maybe fixed) : 0
Inconsistency in error sectors : 0

Track 18
Filename : /Users/ren/Music/rips/18 - Bobby Johnston - Kneller and the Happy Campers.flac

CRC32 hash (test run) : 04E8B731
CRC32 hash : 04E8B731
CRC32 hash (skip zero) : BBA7CA23
AccurateRip signature : CC091E1A
->Accurately ripped! (confidence 2)
Statistics
Read error : 0
Skipped (treated as error) : 0
Edge jitter error (maybe fixed) : 0
Atom jitter error (maybe fixed) : 0
Drift error (maybe fixed) : 0
Dropped bytes error (maybe fixed) : 0
Duplicated bytes error (maybe fixed) : 0
Inconsistency in error sectors : 0

Track 19
Filename : /Users/ren/Music/rips/19 - Bobby Johnston - Parents, Prisoners, and the PIC.flac

CRC32 hash (test run) : FF057A26
CRC32 hash : FF057A26
CRC32 hash (skip zero) : 74EF7019
AccurateRip signature : 39DFB0D0
->Accurately ripped! (confidence 2)
Statistics
Read error : 0
Skipped (treated as error) : 0
Edge jitter error (maybe fixed) : 0
Atom jitter error (maybe fixed) : 0
Drift error (maybe fixed) : 0
Dropped bytes error (maybe fixed) : 0
Duplicated bytes error (maybe fixed) : 0
Inconsistency in error sectors : 0

Track 20
Filename : /Users/ren/Music/rips/20 - Artie Shaw - Gloomy Sunday.flac

CRC32 hash (test run) : BF619320
CRC32 hash : BF619320
CRC32 hash (skip zero) : 8906E106
AccurateRip signature : 46724216
->Accurately ripped! (confidence 2)
Statistics
Read error : 0
Skipped (treated as error) : 0
Edge jitter error (maybe fixed) : 0
Atom jitter error (maybe fixed) : 0
Drift error (maybe fixed) : 0
Dropped bytes error (maybe fixed) : 0
Duplicated bytes error (maybe fixed) : 0
Inconsistency in error sectors : 0

Track 21
Filename : /Users/ren/Music/rips/21 - Bobby Johnston - You Look Exactly the Same.flac

CRC32 hash (test run) : CCE15D32
CRC32 hash : CCE15D32
CRC32 hash (skip zero) : D034B844
AccurateRip signature : AAEB5CEC
->Accurately ripped! (confidence 2)
Statistics
Read error : 0
Skipped (treated as error) : 0
Edge jitter error (maybe fixed) : 0
Atom jitter error (maybe fixed) : 0
Drift error (maybe fixed) : 0
Dropped bytes error (maybe fixed) : 0
Duplicated bytes error (maybe fixed) : 0
Inconsistency in error sectors : 0

Track 22
Filename : /Users/ren/Music/rips/22 - Bobby Johnston - Everything Reminded me of You.flac

CRC32 hash (test run) : 8F2F70AA
CRC32 hash : 8F2F70AA
CRC32 hash (skip zero) : 1B1DC27D
AccurateRip signature : 8E6DC146
->Accurately ripped! (confidence 2)
Statistics
Read error : 0
Skipped (treated as error) : 0
Edge jitter error (maybe fixed) : 0
Atom jitter error (maybe fixed) : 0
Drift error (maybe fixed) : 0
Dropped bytes error (maybe fixed) : 0
Duplicated bytes error (maybe fixed) : 0
Inconsistency in error sectors : 0

Track 23
Filename : /Users/ren/Music/rips/23 - Mushman - Brennan's Theme.flac

CRC32 hash (test run) : 32AD356D
CRC32 hash : 32AD356D
CRC32 hash (skip zero) : 056905A6
AccurateRip signature : 54DFBACE
->Accurately ripped! (confidence 2)
Statistics
Read error : 0
Skipped (treated as error) : 0
Edge jitter error (maybe fixed) : 0
Atom jitter error (maybe fixed) : 0
Drift error (maybe fixed) : 0
Dropped bytes error (maybe fixed) : 0
Duplicated bytes error (maybe fixed) : 0
Inconsistency in error sectors : 0

Track 24
Filename : /Users/ren/Music/rips/24 - Bobby Johnston - People in High Places.flac

CRC32 hash (test run) : F6877E34
CRC32 hash : F6877E34
CRC32 hash (skip zero) : D03494F5
AccurateRip signature : 10F6FDB4
->Accurately ripped! (confidence 2)
Statistics
Read error : 0
Skipped (treated as error) : 0
Edge jitter error (maybe fixed) : 0
Atom jitter error (maybe fixed) : 0
Drift error (maybe fixed) : 0
Dropped bytes error (maybe fixed) : 0
Duplicated bytes error (maybe fixed) : 0
Inconsistency in error sectors : 0

Track 25
Filename : /Users/ren/Music/rips/25 - Gram Parsons - A Song for You.flac

CRC32 hash (test run) : 4364F2A3
CRC32 hash : 4364F2A3
CRC32 hash (skip zero) : 3A17861B
AccurateRip signature : 7BC78FCB
->Accurately ripped! (confidence 2)
Statistics
Read error : 0
Skipped (treated as error) : 0
Edge jitter error (maybe fixed) : 0
Atom jitter error (maybe fixed) : 0
Drift error (maybe fixed) : 0
Dropped bytes error (maybe fixed) : 0
Duplicated bytes error (maybe fixed) : 0
Inconsistency in error sectors : 0

No errors occurred

End of status report
Релиз взят с ваты.

Трекер:  [ 08-Июл-2011 22:36 ]

  

Скачать .torrent

Размер .torrent файла 14 KB


Размер: 299 MB
Хэш (hash) релиза: a9e9cedd98c1f40a37ee170e0e22ab86c98e073c

Еще никто не оставлял запись к записи скачать торрент Wristcutters: A Love Story Самоубийцы: История любви - 2007, FLAC . Будь первым!

!Обратная связь