Скачать через торрент музыку Бриолин Grease бесплатно без регистрации torrent

Если у вас наблюдаются проблемы со скриншотами, переходом по ссылками, скачиванием торрентов - проблемы в блокировщике рекламы AdBlock. #хорошегоДня!


Статистика раздачи
Размер:  734 MB   |    Зарегистрирован:  6 лет 5 месяцев   |    .torrent скачан:  47 раз   |   
Раздают:  1  
   
Загрузка...
 
Автор Сообщение

Galfimbul

avatar Galfimbul


Бриолин / Grease (30th Anniversary Deluxe Edition, 2CD)

Жанр: Original Soundtrack, Stage & Screen
Стиль: Pop/Rock
Год выпуска данного диска: 2008, November, 21 [EAN: 0602498097731]
Год выпуска фильма: 1978
Страна-производитель диска: EU
Издатель (лейбл): Polydor Ltd. (UK) / (Universal International Music B.V.)
Номер по каталогу: 9809773
Аудио кодек: APE (*.ape)
Тип рипа: image+.cue
Битрейт аудио: lossless
Общая продолжительность звучания: 01:42:36;
время звучания каждого из дисков в отдельности указано в их трэклистах
Источник: собственный рип

Доп. информация:

Если к 20-тилетнему юбилею фильма Grease лэйбл Polydor выпустил ряд синглов, среди которых оказался и сингл "You're The One That I Want", например, то в 2003 году на 25-тилетие и в 2008 году, соответственно к 30-тилетнему юбилею мюзикла, Universal International издал замечательное 2-х дисковое Deluxe издание саундтрека. На первом диске Вас ждёт ремастированная версия оригинального OST, а на втором, бонусном диске, представлены неизданные ранее инструментальные версии песен, треки, которые выходили только на синглах, а также ремиксы, входившие в вышеупомянутые CD-синглы 1998 года.
"Grease" - это саундтрек к одноимённому фильму 1978 года с Оливией Ньютон-Джон и Джоном Траволтой в главных ролях.
Данный саундтрек по праву считается наиболее успешным музыкальным сопровождением, когда-либо написанным и адаптированным специально для художественного фильма. В него вошли такие хиты #1 чарта Billboard, как "You're The One That I Want", "Grease", а песня "Hopelessly Devoted to You" даже была номинантом на награду Academy Award.
Альбом "Grease" взобрался на вершины чартов летом 1978 года, вытеснив с первого места альбом "Some Girls" группы The Rolling Stones.
Несколько бэк-вокалистов, принимавших участие в записи саундтрека, на гребне его успеха, дебютировали сольно, как случилось например, с американской рок-группой Toto, которая также в дальнейшем приняла участие в записи двух студийных альбомов подряд для Оливии Ньютон-Джон - "Totally Hot" (1978) и "Physical" (1981).
Диски:
Disc 1: Grease Remastered

Продолжительность: 01:03:19

Tracklist:

01. Grease – 3:23
(Written by Barry Gibb)
Performed by Frankie Valli
(Produced by Barry Gibb, Albhy Galuten and Karl Richardson)
02. Summer Nights – 3:35
(Written by Jim Jacobs & Warren Casey)
Performed by John Travolta/Olivia Newton-John & Cast
03. Hopelessly Devoted to You – 3:00
(Written and Produced by John Farrar)
Performed by Olivia Newton-John
04. You’re The One That I Want – 2:47
(Written and Produced by John Farrar)
Performed by John Travolta/Olivia Newton-John
05. Sandy – 2:30
(Written by Louis St. Louis and Scott Simon)
Performed by John Travolta
Produced by John Farrar
06. Beauty School Dropout – 4:02
(Written by Jim Jacobs & Warren Casey)
Performed by Frankie Avalon
07. Look At Me, I’m Sandra Dee – 1:38
(Written by Jim Jacobs & Warren Casey)
Performed by Stockard Channing
08. Greased Lightnin'
(Written by Jim Jacobs & Warren Casey)
Performed by John Travolta & Jeff Conaway
09. It’s Raining on Prom Night – 2:57
(Written by Jim Jacobs & Warren Casey)
Performed by Cindy Bullens
10. Alone at a Drive-In Movie – 2:22
(Written by Jim Jacobs & Warren Casey)
(instrumental)
Produced by John Farrar
11. Blue Moon – 4:02
(Written by Richard Rodgers and Lorenz Hart)
Performed by Sha Na Na
12. Rock n' Roll is Here to Stay – 2:00
(Written by Dave White)
Performed by Sha Na Na
13. Those Magic Changes – 2:15
(Written by Jim Jacobs & Warren Casey)
Performed by Sha Na Na
Hound Dog – 1:23
14. (Written by Jerry Leiber and Mike Stoller)
Performed by Sha Na Na
15. Born To Hand Jive
(Written by Jim Jacobs & Warren Casey)
Performed by Sha Na Na – 4:39
16. Tears on My Pillow – 2:06
(Written by Sylvester Bradford and Al Lewis)
Performed by Sha Na Na
17. Mooning – 2:12
(Written by Jim Jacobs & Warren Casey)
Performed by Louis St. Louis and Cindy Bullens
18. Freddy, My Love – 2:40
(Written by Jim Jacobs & Warren Casey)
Performed by Cindy Bullens
19. Rock n' Roll Party Queen – 2:08
(Written by Jim Jacobs & Warren Casey)
Performed by Louis St. Louis
20. There are Worse Things I Could Do – 2:18
(Written by Jim Jacobs & Warren Casey)
Performed by Stockard Channing
21. Look At Me, I’m Sandra Dee (Reprise) – 1:20
(Written by Jim Jacobs & Warren Casey)
Performed by Olivia Newton-John
Produced by John Farrar
22. We Go Together – 3:14
(Written by Jim Jacobs & Warren Casey)
Performed by John Travolta/Olivia Newton-John & Cast
23. Love Is a Many-Splendored Thing – 2:22
(Written by Sammy Fain and Paul Francis Webster)
(Instrumental)
24. Grease (Reprise) – 3:23
(Written by Barry Gibb)
Performed by Frankie Valli
(Produced by Barry Gibb, Albhy Galuten and Karl Richardson)
Disc 2: Grease Bonus Disc

Продолжительность: 00:39:17

Tracklist:

01. Grease (Instrumental Version) – 3:24
Performed by Gary Brown (Saxophone)
02. Summer Nights (Sing-A-Long Version) – 3:36
(Instrumental)
03. Hopelessly Devoted To You (Sing-A-Long Version) – 3:04
(Instrumental)
04. You’re The One That I Want (Sing-A-Long Version) – 2:34
(Instrumental)
05. Sandy (Sing-A-Long Version) – 2:31
(Instrumental)
06. Greased Lightnin' (Single Version) – 3:21
Performed by John Travolta
07. Rydell Fight Song (Previously Unreleased Instrumental) – 0:19
08. Greased Up And Ready To Go (Previously Unreleased Instrumental) - 4:50
09. Grease MegaMix – 4:49:
a) You’re The One That I Want
b) Greased Lightnin'
c) Summer Nights
Performed by John Travolta & Olivia Newton-John
10. Grease Dream Mix – 3:47:
a) Grease
b) Sandy
c) Hopelessly Devoted To You
Performed by Frankie Valli, John Travolta & Olivia Newton-John
11. Summer Nights (Martian Remix) – 3:38
Performed by Olivia Newton-John
12. You're The One That I Want (Martian Remix) – 3:24
Performed by John Travolta & Olivia Newton-John
Рип фирменного Бокс-Сета из моей коллекции, сканы обложек и дисков (600 dpi) включены в раздачу.
 
Exact Audio Copy V0.99 prebeta 4 from 23. January 2008

EAC extraction logfile from 29. July 2010, 13:27

Various Artists / Grease (30th Anniversary Deluxe Edition) [CD1]

Used drive : ATAPI DVD DW 8X16X8X16 Adapter: 0 ID: 2

Read mode : SecureUtilize accurate stream : YesDefeat audio cache : YesMake use of C2 pointers : No

Read offset correction : 618Overread into Lead-In and Lead-Out : NoFill up missing offset samples with silence : YesDelete leading and trailing silent blocks : NoNull samples used in CRC calculations : YesUsed interface : Native Win32 interface for Win NT & 2000

Used output format : Internal WAV RoutinesSample format : 44.100 Hz; 16 Bit; Stereo

TOC of the extracted CD

Track | Start | Length | Start sector | End sector---------------------------------------------------------1 | 0:00.00 | 3:25.32 | 0 | 154062 | 3:25.32 | 3:36.25 | 15407 | 316313 | 7:01.57 | 3:05.56 | 31632 | 455624 | 10:07.38 | 2:49.67 | 45563 | 583045 | 12:57.30 | 2:32.58 | 58305 | 697626 | 15:30.13 | 4:01.00 | 69763 | 878377 | 19:31.13 | 1:40.60 | 87838 | 953978 | 21:11.73 | 3:14.13 | 95398 | 1099609 | 24:26.11 | 2:52.30 | 109961 | 12289010 | 27:18.41 | 2:25.45 | 122891 | 13381011 | 29:44.11 | 2:21.00 | 133811 | 14438512 | 32:05.11 | 2:03.50 | 144386 | 15366013 | 34:08.61 | 2:19.00 | 153661 | 16408514 | 36:27.61 | 1:25.05 | 164086 | 17046515 | 37:52.66 | 4:37.33 | 170466 | 19127316 | 42:30.24 | 2:03.50 | 191274 | 20054817 | 44:33.74 | 2:15.60 | 200549 | 21073318 | 46:49.59 | 2:48.02 | 210734 | 22333519 | 49:37.61 | 2:12.04 | 223336 | 23323920 | 51:49.65 | 2:22.71 | 233240 | 24396021 | 54:12.61 | 1:29.63 | 243961 | 25069822 | 55:42.49 | 2:59.46 | 250699 | 26416923 | 58:42.20 | 1:23.09 | 264170 | 27040324 | 60:05.29 | 3:24.46 | 270404 | 285749

Range status and errors

Selected range

Filename C:\BlondStyle\Grease (30th Anniversary Deluxe Edition) [CD1].wav

Peak level 100.0 %Range quality 100.0 %Test CRC B00E55F1Copy CRC B00E55F1Copy OK

No errors occurred

AccurateRip summary

Track 1 accurately ripped (confidence 10) [C108344F]Track 2 accurately ripped (confidence 11) [CD15497B]Track 3 accurately ripped (confidence 11) [6771BA9D]Track 4 accurately ripped (confidence 11) [C8160A1A]Track 5 accurately ripped (confidence 11) [08997BA3]Track 6 accurately ripped (confidence 11) [22AF48BE]Track 7 accurately ripped (confidence 11) [3D0BAE8C]Track 8 accurately ripped (confidence 10) [3A1E0BB5]Track 9 accurately ripped (confidence 9) [8DD68C64]Track 10 accurately ripped (confidence 11) [C020C634]Track 11 accurately ripped (confidence 11) [CC1E2985]Track 12 accurately ripped (confidence 11) [7A3DD94B]Track 13 accurately ripped (confidence 11) [0D349C88]Track 14 accurately ripped (confidence 11) [DC835859]Track 15 accurately ripped (confidence 11) [83557389]Track 16 accurately ripped (confidence 11) [97C371F7]Track 17 accurately ripped (confidence 11) [01FA6196]Track 18 accurately ripped (confidence 11) [CC70CD77]Track 19 accurately ripped (confidence 11) [85C81B8E]Track 20 accurately ripped (confidence 11) [1B287485]Track 21 accurately ripped (confidence 11) [D36F6777]Track 22 accurately ripped (confidence 11) [E26E0531]Track 23 accurately ripped (confidence 11) [8FB78B1A]Track 24 accurately ripped (confidence 10) [EAB1D8EF]

All tracks accurately ripped

End of status report
 
Exact Audio Copy V0.99 prebeta 4 from 23. January 2008

EAC extraction logfile from 29. July 2010, 13:49

Various / Grease (30th Anniversary Deluxe Edition) [CD2]

Used drive : ATAPI DVD DW 8X16X8X16 Adapter: 0 ID: 2

Read mode : SecureUtilize accurate stream : YesDefeat audio cache : YesMake use of C2 pointers : No

Read offset correction : 618Overread into Lead-In and Lead-Out : NoFill up missing offset samples with silence : YesDelete leading and trailing silent blocks : NoNull samples used in CRC calculations : YesUsed interface : Native Win32 interface for Win NT & 2000

Used output format : Internal WAV RoutinesSample format : 44.100 Hz; 16 Bit; Stereo

TOC of the extracted CD

Track | Start | Length | Start sector | End sector---------------------------------------------------------1 | 0:00.00 | 3:24.53 | 0 | 153522 | 3:24.53 | 3:36.61 | 15353 | 316133 | 7:01.39 | 3:04.26 | 31614 | 454394 | 10:05.65 | 2:34.00 | 45440 | 569895 | 12:39.65 | 2:31.60 | 56990 | 683746 | 15:11.50 | 3:21.50 | 68375 | 834997 | 18:33.25 | 0:19.41 | 83500 | 849658 | 18:52.66 | 4:50.13 | 84966 | 1067289 | 23:43.04 | 4:49.22 | 106729 | 12842510 | 28:32.26 | 3:47.00 | 128426 | 14545011 | 32:19.26 | 3:38.00 | 145451 | 16180012 | 35:57.26 | 3:24.73 | 161801 | 177173

Range status and errors

Selected range

Filename C:\BlondStyle\Grease (30th Anniversary Deluxe Edition) [CD2].wav

Peak level 100.0 %Range quality 99.9 %Test CRC E6D89151Copy CRC E6D89151Copy OK

No errors occurred

AccurateRip summary

Track 1 accurately ripped (confidence 9) [C82F60C1]Track 2 accurately ripped (confidence 9) [3A4479D3]Track 3 accurately ripped (confidence 9) [AE04C065]Track 4 accurately ripped (confidence 9) [8B5792BE]Track 5 accurately ripped (confidence 9) [8C928711]Track 6 accurately ripped (confidence 9) [7264E392]Track 7 accurately ripped (confidence 9) [D164E7FC]Track 8 accurately ripped (confidence 9) [F4DA175F]Track 9 accurately ripped (confidence 8) [0A8BC90D]Track 10 accurately ripped (confidence 8) [25763B4A]Track 11 accurately ripped (confidence 8) [0D6EDB19]Track 12 accurately ripped (confidence 8) [4BB43F64]

All tracks accurately ripped

End of status report


Трекер:  [ 08-Июл-2011 22:35 ]

  

Скачать .torrent

Размер .torrent файла 17 KB


Размер: 734 MB
Хэш (hash) релиза: 7bef2964a56f6ef77f41515886ef959abefefad9

Торренты, похожие на Бриолин Grease скачать торрент

Форум Название Автор Размер S L Добавлен
Саундтреки к фильмам и мультфильмам (mp3) ·· (Soundtrack) Бриолин / Grease - 1978, MP3 (tracks), 320 kbps Galfimbul 156032832149 MB 0 0 1292265550

21:39

13-Дек-10

Еще никто не оставлял запись к записи скачать торрент Бриолин Grease . Будь первым!

!Обратная связь