Скачать через торрент музыку Бразилия Brazil бесплатно без регистрации torrent

Если у вас наблюдаются проблемы со скриншотами, переходом по ссылками, скачиванием торрентов - проблемы в блокировщике рекламы AdBlock. #хорошегоДня!


Статистика раздачи
Размер:  217 MB   |    Зарегистрирован:  6 лет 5 месяцев   |    .torrent скачан:  53 раза   |   
Раздают:  1  
   
Загрузка...
 
Автор Сообщение

Galfimbul

avatar Galfimbul


Бразилия / Brazil

Жанр: Score || Композитор: Michael Kamen || Год выпуска: 1992 || Лейбл: Milan Records || Аудио кодек: FLAC || Тип рипа: tracks+.cue || Битрейт аудио: lossless
Продолжительность: 00:38:27 || Источник: what.cd

01 - Central Services / The Office (01:42)
02 - Sam Lowry's 1st Dream / "Brazil" (feat. Kate Bush) (02:11)
03 - Ducts (00:42)
04 - Waiting for Daddy / Sam Lowry's Wetter Dream "The Monoliths Erupt" (03:00)
05 - Truck Drive (01:15)
06 - The Restaurant (You've Got to Say the Number) (01:34)
07 - Mr Helpmann (01:14)
08 - The Elevator (00:46)
09 - Jill Brazil / Power Station (02:08)
10 - The Party (Part 1) / Plastic Surgery (01:04)
11 - Ducting Dream (01:53)
12 - Geoff Muldaur - Brazil (03:27)
13 - Days & Nights in Kyoto - The Party (Part 2) (01:18)
14 - The Morning After (01:47)
15 - Escape? (01:03)
16 - The Battle (04:30)
17 - Harry Tuttle - "A Man Consumed by Paperwork" (01:51)
18 - Mother's Funeral / Forces of Darkness (01:44)
19 - Escape! No Escape! (02:27)
20 - Bachianos Brazil Samba (02:52)
 
X Lossless Decoder version 20101107 (124.1)

XLD extraction logfile from 2010-11-14 00:57:37 +0100

Michael Kamen / Brazil

Used drive : PIONEER DVD-RW DVR-107D (revision 1.21)

Use cdparanoia mode : YES (CDParanoia III 10.2 engine)Disable audio cache : OK for the drive with cache less than 2750KBMake use of C2 pointers : NORead offset correction : 48Max retry count : 100Gap status : Analyzed, Appended (except HTOA)

TOC of the extracted CD Track | Start | Length | Start sector | End sector --------------------------------------------------------- 1 | 00:00:32 | 01:41:68 | 32 | 7674 2 | 01:42:25 | 02:10:62 | 7675 | 17486 3 | 03:53:12 | 00:42:13 | 17487 | 20649 4 | 04:35:25 | 03:00:30 | 20650 | 34179 5 | 07:35:55 | 01:15:17 | 34180 | 39821 6 | 08:50:72 | 01:34:00 | 39822 | 46871 7 | 10:24:72 | 01:14:28 | 46872 | 52449 8 | 11:39:25 | 00:45:45 | 52450 | 55869 9 | 12:24:70 | 02:07:55 | 55870 | 65449 10 | 14:32:50 | 01:03:67 | 65450 | 70241 11 | 15:36:42 | 01:53:23 | 70242 | 78739 12 | 17:29:65 | 03:26:62 | 78740 | 94251 13 | 20:56:52 | 01:18:00 | 94252 | 100101 14 | 22:14:52 | 01:46:58 | 100102 | 108109 15 | 24:01:35 | 01:03:10 | 108110 | 112844 16 | 25:04:45 | 04:30:17 | 112845 | 133111 17 | 29:34:62 | 01:50:43 | 133112 | 141404 18 | 31:25:30 | 01:44:17 | 141405 | 149221 19 | 33:09:47 | 02:26:65 | 149222 | 160236 20 | 35:36:37 | 02:51:70 | 160237 | 173131

List of alternate offset correction values # | Absolute | Relative | Confidence ------------------------------------------ 1 | 715 | 667 | 8 2 | -616 | -664 | 6

All Tracks Album gain : -3.14 dB Peak : 0.999969

Track 01 Filename : /Volumes/Rips/Michael Kamen - Brazil (1992) - FLAC/01 - Central Services / The Office.flac Pre-gap length : 00:02:32

Track gain : -3.11 dB Peak : 0.966339 CRC32 hash (test run) : ADAE23DE CRC32 hash : ADAE23DE CRC32 hash (skip zero) : B7658273 AccurateRip signature : 06FBA902 ->Rip may not be accurate. Statistics Read error : 0 Skipped (treated as error) : 0 Edge jitter error (maybe fixed) : 0 Atom jitter error (maybe fixed) : 0 Drift error (maybe fixed) : 0 Dropped bytes error (maybe fixed) : 0 Duplicated bytes error (maybe fixed) : 0 Inconsistency in error sectors : 0

Track 02 Filename : /Volumes/Rips/Michael Kamen - Brazil (1992) - FLAC/02 - Sam Lowry's 1st Dream / "Brazil" [feat. Kate Bush].flac

Track gain : -4.09 dB Peak : 0.792114 CRC32 hash (test run) : 6384DE4C CRC32 hash : 6384DE4C CRC32 hash (skip zero) : F4361742 AccurateRip signature : 538685E9 ->Accurately ripped! (confidence 8) (matched with the different offset correction value; calculated using an additional offset of 667; the signature after correction is: 36519FDE) Statistics Read error : 0 Skipped (treated as error) : 0 Edge jitter error (maybe fixed) : 0 Atom jitter error (maybe fixed) : 0 Drift error (maybe fixed) : 0 Dropped bytes error (maybe fixed) : 0 Duplicated bytes error (maybe fixed) : 0 Inconsistency in error sectors : 0

Track 03 Filename : /Volumes/Rips/Michael Kamen - Brazil (1992) - FLAC/03 - Ducts.flac

Track gain : -1.76 dB Peak : 0.739807 CRC32 hash (test run) : AD7DFD76 CRC32 hash : AD7DFD76 CRC32 hash (skip zero) : 0994D1AC AccurateRip signature : 41652630 ->Accurately ripped! (confidence 8) (matched with the different offset correction value; calculated using an additional offset of 667; the signature after correction is: 3D421A07) Statistics Read error : 0 Skipped (treated as error) : 0 Edge jitter error (maybe fixed) : 0 Atom jitter error (maybe fixed) : 0 Drift error (maybe fixed) : 0 Dropped bytes error (maybe fixed) : 0 Duplicated bytes error (maybe fixed) : 0 Inconsistency in error sectors : 0

Track 04 Filename : /Volumes/Rips/Michael Kamen - Brazil (1992) - FLAC/04 - Waiting for Daddy / Sam Lowry's Wetter Dream "The Monoliths Erupt".flac

Track gain : -1.29 dB Peak : 0.930969 CRC32 hash (test run) : B2AE04E1 CRC32 hash : B2AE04E1 CRC32 hash (skip zero) : 5EF38141 AccurateRip signature : 976811C7 ->Accurately ripped! (confidence 7) (matched with the different offset correction value; calculated using an additional offset of 667; the signature after correction is: 49EB33A2) Statistics Read error : 0 Skipped (treated as error) : 0 Edge jitter error (maybe fixed) : 0 Atom jitter error (maybe fixed) : 0 Drift error (maybe fixed) : 0 Dropped bytes error (maybe fixed) : 0 Duplicated bytes error (maybe fixed) : 0 Inconsistency in error sectors : 0

Track 05 Filename : /Volumes/Rips/Michael Kamen - Brazil (1992) - FLAC/05 - Truck Drive.flac

Track gain : -4.99 dB Peak : 0.999969 CRC32 hash (test run) : 4B5718F6 CRC32 hash : 4B5718F6 CRC32 hash (skip zero) : 7219E8E0 AccurateRip signature : 7FC3E63D ->Accurately ripped! (confidence 8) (matched with the different offset correction value; calculated using an additional offset of 667; the signature after correction is: DE92708F) Statistics Read error : 0 Skipped (treated as error) : 0 Edge jitter error (maybe fixed) : 0 Atom jitter error (maybe fixed) : 0 Drift error (maybe fixed) : 0 Dropped bytes error (maybe fixed) : 0 Duplicated bytes error (maybe fixed) : 0 Inconsistency in error sectors : 0

Track 06 Filename : /Volumes/Rips/Michael Kamen - Brazil (1992) - FLAC/06 - The Restaurant (You've Got to Say the Number).flac

Track gain : -4.00 dB Peak : 0.828522 CRC32 hash (test run) : 790F257F CRC32 hash : 790F257F CRC32 hash (skip zero) : 65C1C302 AccurateRip signature : D43953B9 ->Accurately ripped! (confidence 8) (matched with the different offset correction value; calculated using an additional offset of 667; the signature after correction is: 9599F03A) Statistics Read error : 0 Skipped (treated as error) : 0 Edge jitter error (maybe fixed) : 0 Atom jitter error (maybe fixed) : 0 Drift error (maybe fixed) : 0 Dropped bytes error (maybe fixed) : 0 Duplicated bytes error (maybe fixed) : 0 Inconsistency in error sectors : 0

Track 07 Filename : /Volumes/Rips/Michael Kamen - Brazil (1992) - FLAC/07 - Mr Helpmann.flac

Track gain : -2.54 dB Peak : 0.946228 CRC32 hash (test run) : 66C5C5E7 CRC32 hash : 66C5C5E7 CRC32 hash (skip zero) : F3CE5B1D AccurateRip signature : C49E15B6 ->Accurately ripped! (confidence 7) (matched with the different offset correction value; calculated using an additional offset of 667; the signature after correction is: 38A4F0A1) Statistics Read error : 0 Skipped (treated as error) : 0 Edge jitter error (maybe fixed) : 0 Atom jitter error (maybe fixed) : 0 Drift error (maybe fixed) : 0 Dropped bytes error (maybe fixed) : 0 Duplicated bytes error (maybe fixed) : 0 Inconsistency in error sectors : 0

Track 08 Filename : /Volumes/Rips/Michael Kamen - Brazil (1992) - FLAC/08 - The Elevator.flac

Track gain : -4.98 dB Peak : 0.942474 CRC32 hash (test run) : CA27C56A CRC32 hash : CA27C56A CRC32 hash (skip zero) : FC0AF83F AccurateRip signature : BF01EEEF ->Accurately ripped! (confidence 7) (matched with the different offset correction value; calculated using an additional offset of 667; the signature after correction is: CD08D633) Statistics Read error : 0 Skipped (treated as error) : 0 Edge jitter error (maybe fixed) : 0 Atom jitter error (maybe fixed) : 0 Drift error (maybe fixed) : 0 Dropped bytes error (maybe fixed) : 0 Duplicated bytes error (maybe fixed) : 0 Inconsistency in error sectors : 0

Track 09 Filename : /Volumes/Rips/Michael Kamen - Brazil (1992) - FLAC/09 - Jill Brazil / Power Station.flac

Track gain : -3.38 dB Peak : 0.999878 CRC32 hash (test run) : 16F86287 CRC32 hash : 16F86287 CRC32 hash (skip zero) : E9B31A1F AccurateRip signature : FF2CF770 ->Accurately ripped! (confidence 7) (matched with the different offset correction value; calculated using an additional offset of 667; the signature after correction is: BE45D009) Statistics Read error : 0 Skipped (treated as error) : 0 Edge jitter error (maybe fixed) : 0 Atom jitter error (maybe fixed) : 0 Drift error (maybe fixed) : 0 Dropped bytes error (maybe fixed) : 0 Duplicated bytes error (maybe fixed) : 0 Inconsistency in error sectors : 0

Track 10 Filename : /Volumes/Rips/Michael Kamen - Brazil (1992) - FLAC/10 - The Party (Part 1) / Plastic Surgery.flac

Track gain : 0.23 dB Peak : 0.696350 CRC32 hash (test run) : D863F452 CRC32 hash : D863F452 CRC32 hash (skip zero) : 279CBB2E AccurateRip signature : 7DFDC72A ->Accurately ripped! (confidence 7) (matched with the different offset correction value; calculated using an additional offset of 667; the signature after correction is: C1571185) Statistics Read error : 0 Skipped (treated as error) : 0 Edge jitter error (maybe fixed) : 0 Atom jitter error (maybe fixed) : 0 Drift error (maybe fixed) : 0 Dropped bytes error (maybe fixed) : 0 Duplicated bytes error (maybe fixed) : 0 Inconsistency in error sectors : 0

Track 11 Filename : /Volumes/Rips/Michael Kamen - Brazil (1992) - FLAC/11 - Ducting Dream.flac

Track gain : -4.12 dB Peak : 0.977234 CRC32 hash (test run) : 1E76201F CRC32 hash : 1E76201F CRC32 hash (skip zero) : 763DB472 AccurateRip signature : 64F3011B ->Accurately ripped! (confidence 7) (matched with the different offset correction value; calculated using an additional offset of 667; the signature after correction is: 23F10D78) Statistics Read error : 0 Skipped (treated as error) : 0 Edge jitter error (maybe fixed) : 0 Atom jitter error (maybe fixed) : 0 Drift error (maybe fixed) : 0 Dropped bytes error (maybe fixed) : 0 Duplicated bytes error (maybe fixed) : 0 Inconsistency in error sectors : 0

Track 12 Filename : /Volumes/Rips/Michael Kamen - Brazil (1992) - FLAC/12 - Geoff Muldaur - Brazil.flac

Track gain : -2.43 dB Peak : 0.866882 CRC32 hash (test run) : 994C54E4 CRC32 hash : 994C54E4 CRC32 hash (skip zero) : D60E8BD8 AccurateRip signature : 63493C13 ->Accurately ripped! (confidence 7) (matched with the different offset correction value; calculated using an additional offset of 667; the signature after correction is: E8FBCF77) Statistics Read error : 0 Skipped (treated as error) : 0 Edge jitter error (maybe fixed) : 0 Atom jitter error (maybe fixed) : 0 Drift error (maybe fixed) : 0 Dropped bytes error (maybe fixed) : 0 Duplicated bytes error (maybe fixed) : 0 Inconsistency in error sectors : 0

Track 13 Filename : /Volumes/Rips/Michael Kamen - Brazil (1992) - FLAC/13 - Days & Nights in Kyoto - The Party (Part 2).flac

Track gain : 5.05 dB Peak : 0.529327 CRC32 hash (test run) : D48247FC CRC32 hash : D48247FC CRC32 hash (skip zero) : 00908D96 AccurateRip signature : 9311C35D ->Accurately ripped! (confidence 7) (matched with the different offset correction value; calculated using an additional offset of 667; the signature after correction is: 8949CFDA) Statistics Read error : 0 Skipped (treated as error) : 0 Edge jitter error (maybe fixed) : 0 Atom jitter error (maybe fixed) : 0 Drift error (maybe fixed) : 0 Dropped bytes error (maybe fixed) : 0 Duplicated bytes error (maybe fixed) : 0 Inconsistency in error sectors : 0

Track 14 Filename : /Volumes/Rips/Michael Kamen - Brazil (1992) - FLAC/14 - The Morning After.flac

Track gain : 6.61 dB Peak : 0.345032 CRC32 hash (test run) : 799BC816 CRC32 hash : 799BC816 CRC32 hash (skip zero) : 7839AE20 AccurateRip signature : BD72813F ->Accurately ripped! (confidence 7) (matched with the different offset correction value; calculated using an additional offset of 667; the signature after correction is: 9B736A80) Statistics Read error : 0 Skipped (treated as error) : 0 Edge jitter error (maybe fixed) : 0 Atom jitter error (maybe fixed) : 0 Drift error (maybe fixed) : 0 Dropped bytes error (maybe fixed) : 0 Duplicated bytes error (maybe fixed) : 0 Inconsistency in error sectors : 0

Track 15 Filename : /Volumes/Rips/Michael Kamen - Brazil (1992) - FLAC/15 - Escape?.flac

Track gain : -1.70 dB Peak : 0.703888 CRC32 hash (test run) : E1827EAD CRC32 hash : E1827EAD CRC32 hash (skip zero) : 62E14901 AccurateRip signature : 70A5E02A ->Accurately ripped! (confidence 7) (matched with the different offset correction value; calculated using an additional offset of 667; the signature after correction is: 65DDE80D) Statistics Read error : 0 Skipped (treated as error) : 0 Edge jitter error (maybe fixed) : 0 Atom jitter error (maybe fixed) : 0 Drift error (maybe fixed) : 0 Dropped bytes error (maybe fixed) : 0 Duplicated bytes error (maybe fixed) : 0 Inconsistency in error sectors : 0

Track 16 Filename : /Volumes/Rips/Michael Kamen - Brazil (1992) - FLAC/16 - The Battle.flac

Track gain : -3.90 dB Peak : 0.737518 CRC32 hash (test run) : 1BAF846B CRC32 hash : 1BAF846B CRC32 hash (skip zero) : E8063CA9 AccurateRip signature : 5126BF98 ->Accurately ripped! (confidence 7) (matched with the different offset correction value; calculated using an additional offset of 667; the signature after correction is: 53F2B7F2) Statistics Read error : 0 Skipped (treated as error) : 0 Edge jitter error (maybe fixed) : 0 Atom jitter error (maybe fixed) : 0 Drift error (maybe fixed) : 0 Dropped bytes error (maybe fixed) : 0 Duplicated bytes error (maybe fixed) : 0 Inconsistency in error sectors : 0

Track 17 Filename : /Volumes/Rips/Michael Kamen - Brazil (1992) - FLAC/17 - Harry Tuttle - "A Man Consumed by Paperwork".flac

Track gain : -1.59 dB Peak : 0.658539 CRC32 hash (test run) : B10F6F52 CRC32 hash : B10F6F52 CRC32 hash (skip zero) : DFCE108C AccurateRip signature : 5A1A1FE4 ->Accurately ripped! (confidence 7) (matched with the different offset correction value; calculated using an additional offset of 667; the signature after correction is: F2DE075D) Statistics Read error : 0 Skipped (treated as error) : 0 Edge jitter error (maybe fixed) : 0 Atom jitter error (maybe fixed) : 0 Drift error (maybe fixed) : 0 Dropped bytes error (maybe fixed) : 0 Duplicated bytes error (maybe fixed) : 0 Inconsistency in error sectors : 0

Track 18 Filename : /Volumes/Rips/Michael Kamen - Brazil (1992) - FLAC/18 - Mother's Funeral / Forces of Darkness.flac

Track gain : -3.04 dB Peak : 0.843353 CRC32 hash (test run) : 5E621087 CRC32 hash : 5E621087 CRC32 hash (skip zero) : FF9A424C AccurateRip signature : 368D7298 ->Accurately ripped! (confidence 7) (matched with the different offset correction value; calculated using an additional offset of 667; the signature after correction is: 6D8702E7) Statistics Read error : 0 Skipped (treated as error) : 0 Edge jitter error (maybe fixed) : 0 Atom jitter error (maybe fixed) : 0 Drift error (maybe fixed) : 0 Dropped bytes error (maybe fixed) : 0 Duplicated bytes error (maybe fixed) : 0 Inconsistency in error sectors : 0

Track 19 Filename : /Volumes/Rips/Michael Kamen - Brazil (1992) - FLAC/19 - Escape! No Escape!.flac

Track gain : -2.10 dB Peak : 0.708740 CRC32 hash (test run) : D03EC8EB CRC32 hash : D03EC8EB CRC32 hash (skip zero) : FFB54FFA AccurateRip signature : C25D181B ->Accurately ripped! (confidence 7) (matched with the different offset correction value; calculated using an additional offset of 667; the signature after correction is: 29EA3426) Statistics Read error : 0 Skipped (treated as error) : 0 Edge jitter error (maybe fixed) : 0 Atom jitter error (maybe fixed) : 0 Drift error (maybe fixed) : 0 Dropped bytes error (maybe fixed) : 0 Duplicated bytes error (maybe fixed) : 0 Inconsistency in error sectors : 0

Track 20 Filename : /Volumes/Rips/Michael Kamen - Brazil (1992) - FLAC/20 - Bachianos Brazil Samba.flac

Track gain : -1.08 dB Peak : 0.895264 CRC32 hash (test run) : 2276A099 CRC32 hash : 2276A099 CRC32 hash (skip zero) : 3083F154 AccurateRip signature : 3D89D2DD ->Rip may not be accurate. Statistics Read error : 0 Skipped (treated as error) : 0 Edge jitter error (maybe fixed) : 0 Atom jitter error (maybe fixed) : 0 Drift error (maybe fixed) : 0 Dropped bytes error (maybe fixed) : 0 Duplicated bytes error (maybe fixed) : 0 Inconsistency in error sectors : 0

No errors occurred

End of status report
 
TITLE "Brazil"PERFORMER "Michael Kamen"REM GENRE "Soundtrack"REM DATE "1992"REM DISCID 15090414FILE "01 - Central Services - The Office.wav" WAVE TRACK 01 AUDIO TITLE "Central Services / The Office" PREGAP 00:00:32 INDEX 01 00:00:00FILE "02 - Sam Lowry's 1st Dream - Brazil (feat. Kate Bush).wav" WAVE TRACK 02 AUDIO TITLE "Sam Lowry's 1st Dream / "Brazil" [feat. Kate Bush]" INDEX 01 00:00:00FILE "03 - Ducts.wav" WAVE TRACK 03 AUDIO TITLE "Ducts" INDEX 01 00:00:00FILE "04 - Waiting for Daddy - Sam Lowry's Wetter Dream The Monoliths Erupt.wav" WAVE TRACK 04 AUDIO TITLE "Waiting for Daddy / Sam Lowry's Wetter Dream "The Monoliths Erupt"" INDEX 01 00:00:00FILE "05 - Truck Drive.wav" WAVE TRACK 05 AUDIO TITLE "Truck Drive" INDEX 01 00:00:00FILE "06 - The Restaurant (You've Got to Say the Number).wav" WAVE TRACK 06 AUDIO TITLE "The Restaurant (You've Got to Say the Number)" INDEX 01 00:00:00FILE "07 - Mr Helpmann.wav" WAVE TRACK 07 AUDIO TITLE "Mr Helpmann" INDEX 01 00:00:00FILE "08 - The Elevator.wav" WAVE TRACK 08 AUDIO TITLE "The Elevator" INDEX 01 00:00:00FILE "09 - Jill Brazil - Power Station.wav" WAVE TRACK 09 AUDIO TITLE "Jill Brazil / Power Station" INDEX 01 00:00:00FILE "10 - The Party (Part 1) - Plastic Surgery.wav" WAVE TRACK 10 AUDIO TITLE "The Party (Part 1) / Plastic Surgery" INDEX 01 00:00:00FILE "11 - Ducting Dream.wav" WAVE TRACK 11 AUDIO TITLE "Ducting Dream" INDEX 01 00:00:00FILE "12 - Geoff Muldaur - Brazil.wav" WAVE TRACK 12 AUDIO TITLE "Geoff Muldaur - Brazil" INDEX 01 00:00:00FILE "13 - Days & Nights in Kyoto - The Party (Part 2).wav" WAVE TRACK 13 AUDIO TITLE "Days & Nights in Kyoto - The Party (Part 2)" INDEX 01 00:00:00FILE "14 - The Morning After.wav" WAVE TRACK 14 AUDIO TITLE "The Morning After" INDEX 01 00:00:00FILE "15 - Escape.wav" WAVE TRACK 15 AUDIO TITLE "Escape?" INDEX 01 00:00:00FILE "16 - The Battle.wav" WAVE TRACK 16 AUDIO TITLE "The Battle" INDEX 01 00:00:00FILE "17 - Harry Tuttle - A Man Consumed by Paperwork.wav" WAVE TRACK 17 AUDIO TITLE "Harry Tuttle - "A Man Consumed by Paperwork"" INDEX 01 00:00:00FILE "18 - Mother's Funeral - Forces of Darkness.wav" WAVE TRACK 18 AUDIO TITLE "Mother's Funeral / Forces of Darkness" INDEX 01 00:00:00FILE "19 - Escape! No Escape!.wav" WAVE TRACK 19 AUDIO TITLE "Escape! No Escape!" INDEX 01 00:00:00FILE "20 - Bachianos Brazil Samba.wav" WAVE TRACK 20 AUDIO TITLE "Bachianos Brazil Samba" INDEX 01 00:00:00



Трекер:  [ 08-Июл-2011 22:35 ]

  

Скачать .torrent

Размер .torrent файла 19 KB


Размер: 217 MB
Хэш (hash) релиза: b42c0b98610f2bacfe0436bdf0f95a62f0cd0b33

Торренты, похожие на Бразилия Brazil скачать торрент

Форум Название Автор Размер S L Добавлен
Саундтреки к фильмам и мультфильмам (mp3) ·· (Soundtrack) Бразилия / Michael Kamen - Brazil OST - 1992, MP3 , 320 kbps Galfimbul 9546359891 MB 0 0 1292265783

21:43

13-Дек-10

Еще никто не оставлял запись к записи скачать торрент Бразилия Brazil . Будь первым!

!Обратная связь