Скачать через торрент музыку Star Trek Звездный Путь, Michael Giacchino - 2009, FLAC бесплатно без регистрации torrent

Если у вас наблюдаются проблемы со скриншотами, переходом по ссылками, скачиванием торрентов - проблемы в блокировщике рекламы AdBlock. #хорошегоДня!


Статистика раздачи
Размер:  231 MB   |    Зарегистрирован:  6 лет 5 месяцев   |    .torrent скачан:  50 раз   |   
Раздают:  1  
   
Загрузка...
 
Автор Сообщение

Galfimbul

avatar Galfimbul


Star Trek / Звездный Путь, Michael Giacchino

Жанр: Score
Год выпуска диска: 2009
Аудио кодек: FLAC
Тип рипа: tracks+.cue
Битрейт аудио: lossless
Продолжительность: 00:44:58

Трэклист:

1. Star Trek (1:01)
2. Nailin' The Kelvin (2:09)
3. Labor Of Love (2:52)
4. Hella Bar Talk (1:56)
5. Enterprising Young Men (2:40)
6. Nero Sighted (3:23)
7. Nice To Meld You (3:14)
8. Run And Shoot Offense (2:05)
9. Does It Still Mcfly (2:03)
10. Nero Death Experience (5:39)
11. Nero Fiddles, Narada Burns (2:34)
12. Back From Black (1:00)
13. That New Cat Smell (4:47)
14. To Boldly Go (0:27)
15. End Credits (9:12)
 
Exact Audio Copy V0.99 prebeta 4 from 23. January 2008

EAC extraction logfile from 5. May 2009, 16:48

Giacchino, Michael / Star Trek

Used drive : TSSTcorpDVD-ROM TS-H352C Adapter: 1 ID: 1

Read mode : SecureUtilize accurate stream : YesDefeat audio cache : YesMake use of C2 pointers : No

Read offset correction : 6Overread into Lead-In and Lead-Out : NoFill up missing offset samples with silence : YesDelete leading and trailing silent blocks : NoNull samples used in CRC calculations : YesUsed interface : Installed external ASPI interfaceGap handling : Appended to previous track

Used output format : User Defined EncoderSelected bitrate : 192 kBit/sQuality : HighAdd ID3 tag : NoCommand line compressor : C:\Program Files\FLAC\flac.exeAdditional command line options : -8 -A tukey(0.25) -A gauss(0.1875) -b 4096 -V -T "artist=%a" -T "title=%t" -T "album=%g" -T "date=%y" -T "tracknumber=%n" -T "genre=%m" %s --sector-align

TOC of the extracted CD

Track | Start | Length | Start sector | End sector --------------------------------------------------------- 1 | 0:00.00 | 1:01.12 | 0 | 4586 2 | 1:01.12 | 2:09.09 | 4587 | 14270 3 | 3:10.21 | 2:51.35 | 14271 | 27130 4 | 6:01.56 | 1:55.47 | 27131 | 35802 5 | 7:57.28 | 2:39.49 | 35803 | 47776 6 | 10:37.02 | 3:23.10 | 47777 | 63011 7 | 14:00.12 | 3:13.45 | 63012 | 77531 8 | 17:13.57 | 2:04.58 | 77532 | 86889 9 | 19:18.40 | 2:03.01 | 86890 | 96115 10 | 21:21.41 | 5:38.65 | 96116 | 121530 11 | 27:00.31 | 2:34.06 | 121531 | 133086 12 | 29:34.37 | 0:59.57 | 133087 | 137568 13 | 30:34.19 | 4:46.24 | 137569 | 159042 14 | 35:20.43 | 0:26.61 | 159043 | 161053 15 | 35:47.29 | 9:11.14 | 161054 | 202392

Track 1

Filename N:\Music\Star Trek\Star Trek (2009, FLAC) - Michel Giacchino\01 - Star Trek.wav

Pre-gap length 0:00:02.00

Peak level 98.8 % Track quality 100.0 % Test CRC 2CA318AC Copy CRC 2CA318AC Copy OK

Track 2

Filename N:\Music\Star Trek\Star Trek (2009, FLAC) - Michel Giacchino\02 - Nailinґ the Kelvin.wav

Peak level 98.8 % Track quality 100.0 % Test CRC 110E35E7 Copy CRC 110E35E7 Copy OK

Track 3

Filename N:\Music\Star Trek\Star Trek (2009, FLAC) - Michel Giacchino\03 - Labor of Love.wav

Peak level 98.8 % Track quality 100.0 % Test CRC E6A48CDA Copy CRC E6A48CDA Copy OK

Track 4

Filename N:\Music\Star Trek\Star Trek (2009, FLAC) - Michel Giacchino\04 - Hella Bar Talk.wav

Peak level 98.8 % Track quality 100.0 % Test CRC 1D90248B Copy CRC 1D90248B Copy OK

Track 5

Filename N:\Music\Star Trek\Star Trek (2009, FLAC) - Michel Giacchino\05 - Enterprising Young Men.wav

Peak level 98.8 % Track quality 100.0 % Test CRC CCD96DDF Copy CRC CCD96DDF Copy OK

Track 6

Filename N:\Music\Star Trek\Star Trek (2009, FLAC) - Michel Giacchino\06 - Nero Sighted.wav

Peak level 98.8 % Track quality 100.0 % Test CRC 818C0D0B Copy CRC 818C0D0B Copy OK

Track 7

Filename N:\Music\Star Trek\Star Trek (2009, FLAC) - Michel Giacchino\07 - Nice to Meld You.wav

Peak level 98.8 % Track quality 99.9 % Test CRC 2F11338F Copy CRC 2F11338F Copy OK

Track 8

Filename N:\Music\Star Trek\Star Trek (2009, FLAC) - Michel Giacchino\08 - Run and Shoot Offense.wav

Peak level 98.8 % Track quality 100.0 % Test CRC 7018033C Copy CRC 7018033C Copy OK

Track 9

Filename N:\Music\Star Trek\Star Trek (2009, FLAC) - Michel Giacchino\09 - Does it Still McFly .wav

Peak level 98.8 % Track quality 100.0 % Test CRC 1FD26824 Copy CRC 1FD26824 Copy OK

Track 10

Filename N:\Music\Star Trek\Star Trek (2009, FLAC) - Michel Giacchino\10 - Nero Death Experience.wav

Peak level 98.8 % Track quality 100.0 % Test CRC 636A5863 Copy CRC 636A5863 Copy OK

Track 11

Filename N:\Music\Star Trek\Star Trek (2009, FLAC) - Michel Giacchino\11 - Nero Fiddles, Narada Burns.wav

Peak level 98.8 % Track quality 99.9 % Test CRC 84FAEF21 Copy CRC 84FAEF21 Copy OK

Track 12

Filename N:\Music\Star Trek\Star Trek (2009, FLAC) - Michel Giacchino\12 - Back From Black.wav

Peak level 98.8 % Track quality 99.8 % Test CRC 147C81A2 Copy CRC 147C81A2 Copy OK

Track 13

Filename N:\Music\Star Trek\Star Trek (2009, FLAC) - Michel Giacchino\13 - That New Car Smell.wav

Peak level 98.8 % Track quality 100.0 % Test CRC CC39C9CE Copy CRC CC39C9CE Copy OK

Track 14

Filename N:\Music\Star Trek\Star Trek (2009, FLAC) - Michel Giacchino\14 - To Boldly Goґ.wav

Peak level 91.3 % Track quality 100.0 % Test CRC C284A352 Copy CRC C284A352 Copy OK

Track 15

Filename N:\Music\Star Trek\Star Trek (2009, FLAC) - Michel Giacchino\15 - End Credits.wav

Peak level 98.8 % Track quality 100.0 % Test CRC 744896B1 Copy CRC 744896B1 Copy OK

No errors occurred

End of status report
 
AUDIOCHECKER v2.0 beta (build 457) - by Dester - opdester@freemail.hu~~~~~~~~~~~~~~~~~~~~~~~~~~~~~~~~~~

Started at: пятница, 08. 05. 2009. - 11:15.3513 files found

01 -===- D:\Download\Star Trek (2009, FLAC) - Michel Giacchino\01 - Star Trek.flac Extracted successfully Conclusion: this track is CDDA with probability 100% Tempfile successfully deleted.

02 -===- D:\Download\Star Trek (2009, FLAC) - Michel Giacchino\03 - Labor of Love.flac Extracted successfully Conclusion: this track is CDDA with probability 100% Tempfile successfully deleted.

03 -===- D:\Download\Star Trek (2009, FLAC) - Michel Giacchino\04 - Hella Bar Talk.flac Extracted successfully Conclusion: this track is CDDA with probability 100% Tempfile successfully deleted.

04 -===- D:\Download\Star Trek (2009, FLAC) - Michel Giacchino\05 - Enterprising Young Men.flac Extracted successfully Conclusion: this track is CDDA with probability 100% Tempfile successfully deleted.

05 -===- D:\Download\Star Trek (2009, FLAC) - Michel Giacchino\06 - Nero Sighted.flac Extracted successfully Conclusion: this track is CDDA with probability 100% Tempfile successfully deleted.

06 -===- D:\Download\Star Trek (2009, FLAC) - Michel Giacchino\07 - Nice to Meld You.flac Extracted successfully Conclusion: this track is CDDA with probability 100% Tempfile successfully deleted.

07 -===- D:\Download\Star Trek (2009, FLAC) - Michel Giacchino\08 - Run and Shoot Offense.flac Extracted successfully Conclusion: this track is CDDA with probability 100% Tempfile successfully deleted.

08 -===- D:\Download\Star Trek (2009, FLAC) - Michel Giacchino\09 - Does it Still McFly .flac Extracted successfully Conclusion: this track is CDDA with probability 100% Tempfile successfully deleted.

09 -===- D:\Download\Star Trek (2009, FLAC) - Michel Giacchino\10 - Nero Death Experience.flac Extracted successfully Conclusion: this track is CDDA with probability 100% Tempfile successfully deleted.

10 -===- D:\Download\Star Trek (2009, FLAC) - Michel Giacchino\11 - Nero Fiddles, Narada Burns.flac Extracted successfully Conclusion: this track is CDDA with probability 99% Tempfile successfully deleted.

11 -===- D:\Download\Star Trek (2009, FLAC) - Michel Giacchino\12 - Back From Black.flac Extracted successfully Conclusion: this track is CDDA with probability 100% Tempfile successfully deleted.

12 -===- D:\Download\Star Trek (2009, FLAC) - Michel Giacchino\13 - That New Car Smell.flac Extracted successfully Conclusion: this track is CDDA with probability 43% Tempfile successfully deleted.

13 -===- D:\Download\Star Trek (2009, FLAC) - Michel Giacchino\15 - End Credits.flac Extracted successfully Conclusion: this track is CDDA with probability 100% Tempfile successfully deleted.

Finished at: пятница, 08. 05. 2009. - 11:23.12 (operation time: 0:07.37)


Трекер:  [ 08-Июл-2011 23:55 ]

  

Скачать .torrent

Размер .torrent файла 19 KB


Размер: 231 MB
Хэш (hash) релиза: dd2aafdb39fbe6e040b9d5bd391cadceb31918e1

Еще никто не оставлял запись к записи скачать торрент Star Trek Звездный Путь, Michael Giacchino - 2009, FLAC . Будь первым!

!Обратная связь