Скачать через торрент музыку Хлоя Chloe бесплатно без регистрации torrent

Если у вас наблюдаются проблемы со скриншотами, переходом по ссылками, скачиванием торрентов - проблемы в блокировщике рекламы AdBlock. #хорошегоДня!


Статистика раздачи
Размер:  200 MB   |    Зарегистрирован:  6 лет 11 месяцев   |    .torrent скачан:  40 раз   |   
Раздают:  1  
   
Загрузка...
 
Автор Сообщение

AqvaGen


Хлоя / Chloe

Жанр: Score
Композитор: Mychael Danna
Год выпуска диска: 2010
Год выпуска фильма: 2009
Страна-производитель диска: США
Издатель (лейбл): Silva Screen
Номер по каталогу: SILCD1305

Аудио кодек: FLAC (*.flac)
Тип рипа: tracks+.cue
Битрейт аудио: lossless
Продолжительность: 00:42:45

Наличие сканов в содержимом раздачи: нет
Треклист:
01. In My Line of Business (02:18)
02. People Like You (00:58)
03. Chardonnay (05:05)
04. When Did We Stop? (02:10)
05. I Felt Him (02:20)
06. Shower (02:07)
07. You Look Just Like Her (01:27)
08. Windsor Arms (03:06)
09. The First Time (01:21)
10. Conservatory (01:19)
11. Touch You (02:57)
12. Have This (01:17)
13. Waiting Room (02:08)
14. Do You Want to Count It? (00:49)
15. Don't Want This to Be Over (01:00)
16. Told You Not to Call (01:32)
17. She Was Nobody (01:13)
18. This Person (01:41)
19. Your Parent's Room (07:57)
 
Exact Audio Copy V0.99 prebeta 5 from 4. May 2009

EAC extraction logfile from 24. September 2010, 21:22

Mychael Danna / Chloe

Used drive : ASUS DRW-2014S1 Adapter: 0 ID: 1

Read mode : SecureUtilize accurate stream : YesDefeat audio cache : YesMake use of C2 pointers : No

Read offset correction : 6Overread into Lead-In and Lead-Out : NoFill up missing offset samples with silence : YesDelete leading and trailing silent blocks : NoNull samples used in CRC calculations : YesUsed interface : Installed external ASPI interfaceGap handling : Appended to previous track

Used output format : User Defined EncoderSelected bitrate : 320 kBit/sQuality : HighAdd ID3 tag : NoCommand line compressor : C:\Program Files\Exact Audio Copy\flac.exeAdditional command line options : -8 -V -T "artist=%a" -T "title=%t" -T "album=%g" -T "date=%y" -T "tracknumber=%n" -T "genre=%m" -T "comment=High Quality, EAC secure, Lossless flac " %s

TOC of the extracted CD

Track | Start | Length | Start sector | End sector --------------------------------------------------------- 1 | 0:00.00 | 2:20.50 | 0 | 10549 2 | 2:20.50 | 0:58.32 | 10550 | 14931 3 | 3:19.07 | 5:06.26 | 14932 | 37907 4 | 8:25.33 | 2:10.09 | 37908 | 47666 5 | 10:35.42 | 2:21.55 | 47667 | 58296 6 | 12:57.22 | 2:08.19 | 58297 | 67915 7 | 15:05.41 | 1:27.57 | 67916 | 74497 8 | 16:33.23 | 3:07.24 | 74498 | 88546 9 | 19:40.47 | 1:22.40 | 88547 | 94736 10 | 21:03.12 | 1:19.64 | 94737 | 100725 11 | 22:23.01 | 2:59.40 | 100726 | 114190 12 | 25:22.41 | 1:17.34 | 114191 | 119999 13 | 26:40.00 | 2:09.14 | 120000 | 129688 14 | 28:49.14 | 0:49.59 | 129689 | 133422 15 | 29:38.73 | 1:01.37 | 133423 | 138034 16 | 30:40.35 | 1:32.14 | 138035 | 144948 17 | 32:12.49 | 1:14.08 | 144949 | 150506 18 | 33:26.57 | 1:42.50 | 150507 | 158206 19 | 35:09.32 | 7:57.68 | 158207 | 194049

Track 1

Filename F:\whatcd\a\Mychael Danna - 2010 - Chloe\01 - In My Line Of Business.wav

Pre-gap length 0:00:02.00

Peak level 92.2 % Track quality 100.0 % Test CRC 7FA4AC30 Copy CRC 7FA4AC30 Track not present in AccurateRip database Copy OK

Track 2

Filename F:\whatcd\a\Mychael Danna - 2010 - Chloe\02 - People Like You.wav

Pre-gap length 0:00:01.00

Peak level 89.3 % Track quality 99.8 % Test CRC BB84CDDC Copy CRC BB84CDDC Track not present in AccurateRip database Copy OK

Track 3

Filename F:\whatcd\a\Mychael Danna - 2010 - Chloe\03 - Chardonnay.wav

Peak level 97.7 % Track quality 100.0 % Test CRC DD7E54A7 Copy CRC DD7E54A7 Track not present in AccurateRip database Copy OK

Track 4

Filename F:\whatcd\a\Mychael Danna - 2010 - Chloe\04 - When Did We Stop .wav

Peak level 77.3 % Track quality 100.0 % Test CRC F1ECC359 Copy CRC F1ECC359 Track not present in AccurateRip database Copy OK

Track 5

Filename F:\whatcd\a\Mychael Danna - 2010 - Chloe\05 - I Felt Him.wav

Peak level 96.9 % Track quality 100.0 % Test CRC F0910CD0 Copy CRC F0910CD0 Track not present in AccurateRip database Copy OK

Track 6

Filename F:\whatcd\a\Mychael Danna - 2010 - Chloe\06 - Shower.wav

Pre-gap length 0:00:01.00

Peak level 93.3 % Track quality 100.0 % Test CRC AB2D1B19 Copy CRC AB2D1B19 Track not present in AccurateRip database Copy OK

Track 7

Filename F:\whatcd\a\Mychael Danna - 2010 - Chloe\07 - You Look Just Like Her.wav

Peak level 60.6 % Track quality 100.0 % Test CRC F123B8C5 Copy CRC F123B8C5 Track not present in AccurateRip database Copy OK

Track 8

Filename F:\whatcd\a\Mychael Danna - 2010 - Chloe\08 - Windsor Arms.wav

Peak level 98.7 % Track quality 100.0 % Test CRC D87896DE Copy CRC D87896DE Track not present in AccurateRip database Copy OK

Track 9

Filename F:\whatcd\a\Mychael Danna - 2010 - Chloe\09 - The First Time.wav

Peak level 97.6 % Track quality 100.0 % Test CRC 3A2A114A Copy CRC 3A2A114A Track not present in AccurateRip database Copy OK

Track 10

Filename F:\whatcd\a\Mychael Danna - 2010 - Chloe\10 - Conservatory.wav

Peak level 92.5 % Track quality 100.0 % Test CRC F92664C5 Copy CRC F92664C5 Track not present in AccurateRip database Copy OK

Track 11

Filename F:\whatcd\a\Mychael Danna - 2010 - Chloe\11 - Touch You.wav

Peak level 96.9 % Track quality 100.0 % Test CRC A9F0EECB Copy CRC A9F0EECB Track not present in AccurateRip database Copy OK

Track 12

Filename F:\whatcd\a\Mychael Danna - 2010 - Chloe\12 - Have This.wav

Pre-gap length 0:00:02.00

Peak level 94.6 % Track quality 100.0 % Test CRC BE6F2C1B Copy CRC BE6F2C1B Track not present in AccurateRip database Copy OK

Track 13

Filename F:\whatcd\a\Mychael Danna - 2010 - Chloe\13 - Waiting Room.wav

Peak level 91.0 % Track quality 99.9 % Test CRC 049B3645 Copy CRC 049B3645 Track not present in AccurateRip database Copy OK

Track 14

Filename F:\whatcd\a\Mychael Danna - 2010 - Chloe\14 - Do You Want To Count It .wav

Peak level 90.0 % Track quality 99.7 % Test CRC 249753AF Copy CRC 249753AF Track not present in AccurateRip database Copy OK

Track 15

Filename F:\whatcd\a\Mychael Danna - 2010 - Chloe\15 - Don't Want This To Be Over.wav

Peak level 94.9 % Track quality 100.0 % Test CRC F71BA631 Copy CRC F71BA631 Track not present in AccurateRip database Copy OK

Track 16

Filename F:\whatcd\a\Mychael Danna - 2010 - Chloe\16 - Told You Not To Call.wav

Peak level 96.1 % Track quality 100.0 % Test CRC 39C842C0 Copy CRC 39C842C0 Track not present in AccurateRip database Copy OK

Track 17

Filename F:\whatcd\a\Mychael Danna - 2010 - Chloe\17 - She Was Nobody.wav

Peak level 96.3 % Track quality 100.0 % Test CRC 87140EA3 Copy CRC 87140EA3 Track not present in AccurateRip database Copy OK

Track 18

Filename F:\whatcd\a\Mychael Danna - 2010 - Chloe\18 - This Person.wav

Peak level 59.3 % Track quality 100.0 % Test CRC 091639B3 Copy CRC 091639B3 Track not present in AccurateRip database Copy OK

Track 19

Filename F:\whatcd\a\Mychael Danna - 2010 - Chloe\19 - Your Parent's Room.wav

Peak level 100.0 % Track quality 100.0 % Test CRC AE003FBE Copy CRC AE003FBE Track not present in AccurateRip database Copy OK

None of the tracks are present in the AccurateRip database

No errors occurred

End of status report
 
REM GENRE SoundtrackREM DATE 2010REM DISCID ED0A1B13REM COMMENT "ExactAudioCopy v0.99pb5"PERFORMER "Mychael Danna"TITLE "Chloe"FILE "01 - In My Line Of Business.wav" WAVE TRACK 01 AUDIO TITLE "In My Line Of Business" PERFORMER "Mychael Danna" FLAGS DCP INDEX 01 00:00:00 TRACK 02 AUDIO TITLE "People Like You" PERFORMER "Mychael Danna" FLAGS DCP INDEX 00 02:19:50FILE "02 - People Like You.wav" WAVE INDEX 01 00:00:00FILE "03 - Chardonnay.wav" WAVE TRACK 03 AUDIO TITLE "Chardonnay" PERFORMER "Mychael Danna" FLAGS DCP INDEX 01 00:00:00FILE "04 - When Did We Stop .wav" WAVE TRACK 04 AUDIO TITLE "When Did We Stop?" PERFORMER "Mychael Danna" FLAGS DCP INDEX 01 00:00:00FILE "05 - I Felt Him.wav" WAVE TRACK 05 AUDIO TITLE "I Felt Him" PERFORMER "Mychael Danna" FLAGS DCP INDEX 01 00:00:00 TRACK 06 AUDIO TITLE "Shower" PERFORMER "Mychael Danna" FLAGS DCP INDEX 00 02:20:55FILE "06 - Shower.wav" WAVE INDEX 01 00:00:00FILE "07 - You Look Just Like Her.wav" WAVE TRACK 07 AUDIO TITLE "You Look Just Like Her" PERFORMER "Mychael Danna" FLAGS DCP INDEX 01 00:00:00FILE "08 - Windsor Arms.wav" WAVE TRACK 08 AUDIO TITLE "Windsor Arms" PERFORMER "Mychael Danna" FLAGS DCP INDEX 01 00:00:00FILE "09 - The First Time.wav" WAVE TRACK 09 AUDIO TITLE "The First Time" PERFORMER "Mychael Danna" FLAGS DCP INDEX 01 00:00:00FILE "10 - Conservatory.wav" WAVE TRACK 10 AUDIO TITLE "Conservatory" PERFORMER "Mychael Danna" FLAGS DCP INDEX 01 00:00:00FILE "11 - Touch You.wav" WAVE TRACK 11 AUDIO TITLE "Touch You" PERFORMER "Mychael Danna" FLAGS DCP INDEX 01 00:00:00 TRACK 12 AUDIO TITLE "Have This" PERFORMER "Mychael Danna" FLAGS DCP INDEX 00 02:57:40FILE "12 - Have This.wav" WAVE INDEX 01 00:00:00FILE "13 - Waiting Room.wav" WAVE TRACK 13 AUDIO TITLE "Waiting Room" PERFORMER "Mychael Danna" FLAGS DCP INDEX 01 00:00:00FILE "14 - Do You Want To Count It .wav" WAVE TRACK 14 AUDIO TITLE "Do You Want To Count It?" PERFORMER "Mychael Danna" FLAGS DCP INDEX 01 00:00:00FILE "15 - Don't Want This To Be Over.wav" WAVE TRACK 15 AUDIO TITLE "Don't Want This To Be Over" PERFORMER "Mychael Danna" FLAGS DCP INDEX 01 00:00:00FILE "16 - Told You Not To Call.wav" WAVE TRACK 16 AUDIO TITLE "Told You Not To Call" PERFORMER "Mychael Danna" FLAGS DCP INDEX 01 00:00:00FILE "17 - She Was Nobody.wav" WAVE TRACK 17 AUDIO TITLE "She Was Nobody" PERFORMER "Mychael Danna" FLAGS DCP INDEX 01 00:00:00FILE "18 - This Person.wav" WAVE TRACK 18 AUDIO TITLE "This Person" PERFORMER "Mychael Danna" FLAGS DCP INDEX 01 00:00:00FILE "19 - Your Parent's Room.wav" WAVE TRACK 19 AUDIO TITLE "Your Parent's Room" PERFORMER "Mychael Danna" FLAGS DCP INDEX 01 00:00:00


Трекер:  [ 22-Дек-2010 15:13 ]

  

Скачать .torrent

Размер .torrent файла 17 KB


Размер: 200 MB
Хэш (hash) релиза: c309d7f004b615eccf4ee46c9f2dd4e06db4bc09

Торренты, похожие на Хлоя Chloe скачать торрент

Форум Название Автор Размер S L Добавлен
Саундтреки к фильмам и мультфильмам (mp3) ·· (Score) Хлоя / Chloe (by Mychael Danna) - 2010, MP3 (tracks), 320 kbps Galfimbul 10359245599 MB 0 0 1292265841

21:44

13-Дек-10

bot

Топик был перенесен в форум Саундтреки к фильмам и мультфильмам (lossless)

Перенес AqvaGen

Хотите добавить комментарий к записи скачать торрент Хлоя Chloe

!Обратная связь