Скачать через торрент музыку Жена путешественника во времени The Time Travelers Wife бесплатно без регистрации torrent

Если у вас наблюдаются проблемы со скриншотами, переходом по ссылками, скачиванием торрентов - проблемы в блокировщике рекламы AdBlock. #хорошегоДня!


Статистика раздачи
Размер:  251 MB   |    Зарегистрирован:  6 лет 5 месяцев   |    .torrent скачан:  38 раз   |   
Раздают:  1  
   
Загрузка...
 
Автор Сообщение

Galfimbul

avatar Galfimbul


Жена путешественника во времени / The Time Traveler's Wife


Жанр: Score
Год выпуска : 2009
Лейбл: New Line Records
Аудио кодек: FLAC
Тип рипа: tracks+.cue
Битрейт аудио: lossless
Продолжительность: 00:55:14
Рип: evil_silence - What CD
01. Es Ist Ein Ros (0:51)
02. I'm You Henry (2:30)
03. Meadow (3:20)
04. How Does It Feel? (1:59)
05. Diary (1:22)
06. Train (1:44)
07. I Don't Feel Alone Anymore (2:23)
08. 'Love Will Tear Us Apart' - Broken Social Scene (4:45)
09. Married To Me (1:05)
10. Home (1:36)
11. Do You Know When? (2:10)
12. Testing (1:04)
13. Alba (2:34)
14. I Never Had A Choice (2:58)
15. Who Would Want That? (2:29)
16. I Left Him Sleeping (1:30)
17. It's A Girl (2:59)
18. Five Years (2:03)
19. Try To Stay (1:40)
20. New Year's Eve (1:56)
21. No Tracks In The Snow (1:48)
22. See You Again (5:42)
23. 'Broken' - Lifehouse (4:47)
 
Exact Audio Copy V0.99 prebeta 5 from 4. May 2009

EAC extraction logfile from 21. January 2010, 16:10

Mychael Danna / The Time Traveler's Wife (BSt)

Used drive : TSSTcorpDVD+-RW TS-L632H Adapter: 1 ID: 0

Read mode : SecureUtilize accurate stream : YesDefeat audio cache : YesMake use of C2 pointers : No

Read offset correction : 6Overread into Lead-In and Lead-Out : NoFill up missing offset samples with silence : YesDelete leading and trailing silent blocks : NoNull samples used in CRC calculations : YesUsed interface : Native Win32 interface for Win NT & 2000Gap handling : Appended to previous track

Used output format : User Defined EncoderSelected bitrate : 192 kBit/sQuality : HighAdd ID3 tag : NoCommand line compressor : C:\Program Files\Exact Audio Copy\Flac\flac.exeAdditional command line options : -V -8 -T "artist=%a" -T "title=%t" -T "album=%g" -T "date=%y" -T "tracknumber=%n" -T "genre=%m" %s

TOC of the extracted CD

Track | Start | Length | Start sector | End sector --------------------------------------------------------- 1 | 0:00.00 | 0:51.16 | 0 | 3840 2 | 0:51.16 | 2:30.15 | 3841 | 15105 3 | 3:21.31 | 3:19.58 | 15106 | 30088 4 | 6:41.14 | 1:59.31 | 30089 | 39044 5 | 8:40.45 | 1:21.48 | 39045 | 45167 6 | 10:02.18 | 1:43.47 | 45168 | 52939 7 | 11:45.65 | 2:22.45 | 52940 | 63634 8 | 14:08.35 | 4:44.53 | 63635 | 84987 9 | 18:53.13 | 1:04.38 | 84988 | 89825 10 | 19:57.51 | 1:35.74 | 89826 | 97024 11 | 21:33.50 | 2:09.53 | 97025 | 106752 12 | 23:43.28 | 1:04.11 | 106753 | 111563 13 | 24:47.39 | 2:33.68 | 111564 | 123106 14 | 27:21.32 | 2:58.25 | 123107 | 136481 15 | 30:19.57 | 2:28.73 | 136482 | 147654 16 | 32:48.55 | 1:30.18 | 147655 | 154422 17 | 34:18.73 | 2:58.48 | 154423 | 167820 18 | 37:17.46 | 2:03.27 | 167821 | 177072 19 | 39:20.73 | 1:40.02 | 177073 | 184574 20 | 41:01.00 | 1:55.54 | 184575 | 193253 21 | 42:56.54 | 1:48.19 | 193254 | 201372 22 | 44:44.73 | 5:41.73 | 201373 | 227020 23 | 50:26.71 | 4:47.15 | 227021 | 248560

Track 1

Filename C:\Users\Robert\Downloads\Upload\WhatCD\Mychael Danna - The Time Traveler's Wife\01 Es Ist Ein Ros.wav

Pre-gap length 0:00:02.00

Peak level 38.8 % Track quality 100.0 % Test CRC CE6BF7C9 Copy CRC CE6BF7C9 Track not present in AccurateRip database Copy OK

Track 2

Filename C:\Users\Robert\Downloads\Upload\WhatCD\Mychael Danna - The Time Traveler's Wife\02 I'm You Henry.wav

Peak level 98.8 % Track quality 100.0 % Test CRC 51B9FE76 Copy CRC 51B9FE76 Track not present in AccurateRip database Copy OK

Track 3

Filename C:\Users\Robert\Downloads\Upload\WhatCD\Mychael Danna - The Time Traveler's Wife\03 Meadow.wav

Peak level 98.8 % Track quality 100.0 % Test CRC 7E327B4C Copy CRC 7E327B4C Track not present in AccurateRip database Copy OK

Track 4

Filename C:\Users\Robert\Downloads\Upload\WhatCD\Mychael Danna - The Time Traveler's Wife\04 How Does It Feel .wav

Peak level 90.8 % Track quality 100.0 % Test CRC 5A59002A Copy CRC 5A59002A Track not present in AccurateRip database Copy OK

Track 5

Filename C:\Users\Robert\Downloads\Upload\WhatCD\Mychael Danna - The Time Traveler's Wife\05 Diary.wav

Peak level 56.5 % Track quality 100.0 % Test CRC 93E22D13 Copy CRC 93E22D13 Track not present in AccurateRip database Copy OK

Track 6

Filename C:\Users\Robert\Downloads\Upload\WhatCD\Mychael Danna - The Time Traveler's Wife\06 Train.wav

Peak level 98.8 % Track quality 99.8 % Test CRC 94D141BC Copy CRC 94D141BC Track not present in AccurateRip database Copy OK

Track 7

Filename C:\Users\Robert\Downloads\Upload\WhatCD\Mychael Danna - The Time Traveler's Wife\07 I Don't Feel Alone Anymore.wav

Peak level 97.7 % Track quality 100.0 % Test CRC 77A6670C Copy CRC 77A6670C Track not present in AccurateRip database Copy OK

Track 8

Filename C:\Users\Robert\Downloads\Upload\WhatCD\Mychael Danna - The Time Traveler's Wife\08 'Love Will Tear Us Apart' - Broken Social Scene.wav

Peak level 99.0 % Track quality 100.0 % Test CRC 67C08695 Copy CRC 67C08695 Track not present in AccurateRip database Copy OK

Track 9

Filename C:\Users\Robert\Downloads\Upload\WhatCD\Mychael Danna - The Time Traveler's Wife\09 Married To Me.wav

Peak level 81.1 % Track quality 100.0 % Test CRC C459D17D Copy CRC C459D17D Track not present in AccurateRip database Copy OK

Track 10

Filename C:\Users\Robert\Downloads\Upload\WhatCD\Mychael Danna - The Time Traveler's Wife\10 Home.wav

Peak level 84.2 % Track quality 99.8 % Test CRC BE8E0DA7 Copy CRC BE8E0DA7 Track not present in AccurateRip database Copy OK

Track 11

Filename C:\Users\Robert\Downloads\Upload\WhatCD\Mychael Danna - The Time Traveler's Wife\11 Do You Know When .wav

Peak level 98.8 % Track quality 100.0 % Test CRC 7DCD3125 Copy CRC 7DCD3125 Track not present in AccurateRip database Copy OK

Track 12

Filename C:\Users\Robert\Downloads\Upload\WhatCD\Mychael Danna - The Time Traveler's Wife\12 Testing.wav

Peak level 98.8 % Track quality 100.0 % Test CRC E0591DEB Copy CRC E0591DEB Track not present in AccurateRip database Copy OK

Track 13

Filename C:\Users\Robert\Downloads\Upload\WhatCD\Mychael Danna - The Time Traveler's Wife\13 Alba.wav

Peak level 98.8 % Track quality 100.0 % Test CRC 37946CA1 Copy CRC 37946CA1 Track not present in AccurateRip database Copy OK

Track 14

Filename C:\Users\Robert\Downloads\Upload\WhatCD\Mychael Danna - The Time Traveler's Wife\14 I Never Had A Choice.wav

Peak level 98.8 % Track quality 99.9 % Test CRC C425A737 Copy CRC C425A737 Track not present in AccurateRip database Copy OK

Track 15

Filename C:\Users\Robert\Downloads\Upload\WhatCD\Mychael Danna - The Time Traveler's Wife\15 Who Would Want That .wav

Peak level 98.8 % Track quality 100.0 % Test CRC 8ECC41AB Copy CRC 8ECC41AB Track not present in AccurateRip database Copy OK

Track 16

Filename C:\Users\Robert\Downloads\Upload\WhatCD\Mychael Danna - The Time Traveler's Wife\16 I Left Him Sleeping.wav

Peak level 97.7 % Track quality 100.0 % Test CRC EDF0CEC3 Copy CRC EDF0CEC3 Track not present in AccurateRip database Copy OK

Track 17

Filename C:\Users\Robert\Downloads\Upload\WhatCD\Mychael Danna - The Time Traveler's Wife\17 It's A Girl.wav

Peak level 98.8 % Track quality 99.9 % Test CRC D6735523 Copy CRC D6735523 Track not present in AccurateRip database Copy OK

Track 18

Filename C:\Users\Robert\Downloads\Upload\WhatCD\Mychael Danna - The Time Traveler's Wife\18 Five Years.wav

Peak level 98.8 % Track quality 100.0 % Test CRC DC137501 Copy CRC DC137501 Track not present in AccurateRip database Copy OK

Track 19

Filename C:\Users\Robert\Downloads\Upload\WhatCD\Mychael Danna - The Time Traveler's Wife\19 Try To Stay.wav

Peak level 97.7 % Track quality 100.0 % Test CRC DD430E14 Copy CRC DD430E14 Track not present in AccurateRip database Copy OK

Track 20

Filename C:\Users\Robert\Downloads\Upload\WhatCD\Mychael Danna - The Time Traveler's Wife\20 New Year's Eve.wav

Peak level 84.2 % Track quality 100.0 % Test CRC 0BF8C029 Copy CRC 0BF8C029 Track not present in AccurateRip database Copy OK

Track 21

Filename C:\Users\Robert\Downloads\Upload\WhatCD\Mychael Danna - The Time Traveler's Wife\21 No Tracks In The Snow.wav

Peak level 82.6 % Track quality 99.9 % Test CRC F03BE045 Copy CRC F03BE045 Track not present in AccurateRip database Copy OK

Track 22

Filename C:\Users\Robert\Downloads\Upload\WhatCD\Mychael Danna - The Time Traveler's Wife\22 See You Again.wav

Peak level 98.8 % Track quality 100.0 % Test CRC 6F821959 Copy CRC 6F821959 Track not present in AccurateRip database Copy OK

Track 23

Filename C:\Users\Robert\Downloads\Upload\WhatCD\Mychael Danna - The Time Traveler's Wife\23 'Broken' - Lifehouse.wav

Peak level 96.6 % Track quality 100.0 % Test CRC 8B5DEBB8 Copy CRC 8B5DEBB8 Track not present in AccurateRip database Copy OK

None of the tracks are present in the AccurateRip database

No errors occurred

End of status report
 
REM GENRE SoundtrackREM DATE 2009REM DISCID 2E0CF217REM COMMENT "ExactAudioCopy v0.99pb5"PERFORMER "Mychael Danna"TITLE "The Time Traveler's Wife"FILE "01 Es Ist Ein Ros.wav" WAVE TRACK 01 AUDIO TITLE "Es Ist Ein Ros" PERFORMER "Mychael Danna" INDEX 01 00:00:00FILE "02 I'm You Henry.wav" WAVE TRACK 02 AUDIO TITLE "I'm You Henry" PERFORMER "Mychael Danna" INDEX 01 00:00:00FILE "03 Meadow.wav" WAVE TRACK 03 AUDIO TITLE "Meadow" PERFORMER "Mychael Danna" INDEX 01 00:00:00FILE "04 How Does It Feel .wav" WAVE TRACK 04 AUDIO TITLE "How Does It Feel?" PERFORMER "Mychael Danna" INDEX 01 00:00:00FILE "05 Diary.wav" WAVE TRACK 05 AUDIO TITLE "Diary" PERFORMER "Mychael Danna" INDEX 01 00:00:00FILE "06 Train.wav" WAVE TRACK 06 AUDIO TITLE "Train" PERFORMER "Mychael Danna" INDEX 01 00:00:00FILE "07 I Don't Feel Alone Anymore.wav" WAVE TRACK 07 AUDIO TITLE "I Don't Feel Alone Anymore" PERFORMER "Mychael Danna" INDEX 01 00:00:00FILE "08 'Love Will Tear Us Apart' - Broken Social Scene.wav" WAVE TRACK 08 AUDIO TITLE "'Love Will Tear Us Apart' - Broken Social Scene" PERFORMER "Mychael Danna" INDEX 01 00:00:00FILE "09 Married To Me.wav" WAVE TRACK 09 AUDIO TITLE "Married To Me" PERFORMER "Mychael Danna" INDEX 01 00:00:00FILE "10 Home.wav" WAVE TRACK 10 AUDIO TITLE "Home" PERFORMER "Mychael Danna" INDEX 01 00:00:00FILE "11 Do You Know When .wav" WAVE TRACK 11 AUDIO TITLE "Do You Know When?" PERFORMER "Mychael Danna" INDEX 01 00:00:00FILE "12 Testing.wav" WAVE TRACK 12 AUDIO TITLE "Testing" PERFORMER "Mychael Danna" INDEX 01 00:00:00FILE "13 Alba.wav" WAVE TRACK 13 AUDIO TITLE "Alba" PERFORMER "Mychael Danna" INDEX 01 00:00:00FILE "14 I Never Had A Choice.wav" WAVE TRACK 14 AUDIO TITLE "I Never Had A Choice" PERFORMER "Mychael Danna" INDEX 01 00:00:00FILE "15 Who Would Want That .wav" WAVE TRACK 15 AUDIO TITLE "Who Would Want That?" PERFORMER "Mychael Danna" INDEX 01 00:00:00FILE "16 I Left Him Sleeping.wav" WAVE TRACK 16 AUDIO TITLE "I Left Him Sleeping" PERFORMER "Mychael Danna" INDEX 01 00:00:00FILE "17 It's A Girl.wav" WAVE TRACK 17 AUDIO TITLE "It's A Girl" PERFORMER "Mychael Danna" INDEX 01 00:00:00FILE "18 Five Years.wav" WAVE TRACK 18 AUDIO TITLE "Five Years" PERFORMER "Mychael Danna" INDEX 01 00:00:00FILE "19 Try To Stay.wav" WAVE TRACK 19 AUDIO TITLE "Try To Stay" PERFORMER "Mychael Danna" INDEX 01 00:00:00FILE "20 New Year's Eve.wav" WAVE TRACK 20 AUDIO TITLE "New Year's Eve" PERFORMER "Mychael Danna" INDEX 01 00:00:00FILE "21 No Tracks In The Snow.wav" WAVE TRACK 21 AUDIO TITLE "No Tracks In The Snow" PERFORMER "Mychael Danna" INDEX 01 00:00:00FILE "22 See You Again.wav" WAVE TRACK 22 AUDIO TITLE "See You Again" PERFORMER "Mychael Danna" INDEX 01 00:00:00FILE "23 'Broken' - Lifehouse.wav" WAVE TRACK 23 AUDIO TITLE "'Broken' - Lifehouse" PERFORMER "Mychael Danna" INDEX 01 00:00:00


Трекер:  [ 08-Июл-2011 23:46 ]

  

Скачать .torrent

Размер .torrent файла 21 KB


Размер: 251 MB
Хэш (hash) релиза: 9fd2de438c9d5cdb9a32c4da89c238c1bf79ae52

Торренты, похожие на Жена путешественника во времени The Time Travelers Wife скачать торрент

Форум Название Автор Размер S L Добавлен
Саундтреки к фильмам и мультфильмам (mp3) ·· (Score) Жена путешественника во времени / The Time Traveler's Wife (Mychael Danna) - 2009 [MP3 320 kbps] Galfimbul 132828497127 MB 0 0 1292266245

21:50

13-Дек-10

Еще никто не оставлял запись к записи скачать торрент Жена путешественника во времени The Time Travelers Wife . Будь первым!

!Обратная связь