Скачать через торрент музыку История рыцаря A Knights Tale бесплатно без регистрации torrent

Если у вас наблюдаются проблемы со скриншотами, переходом по ссылками, скачиванием торрентов - проблемы в блокировщике рекламы AdBlock. #хорошегоДня!


Статистика раздачи
Размер:  328 MB   |    Зарегистрирован:  6 лет 5 месяцев   |    .torrent скачан:  59 раз   |   
Раздают:  1  
   
Загрузка...
 
Автор Сообщение

Galfimbul

avatar Galfimbul


История рыцаря / A Knight's Tale

Жанр: Soundtrack
Композитор: Carter Burwell
Год выпуска диска: 2001
Страна-производитель диска: USA
Аудио кодек: FLAC (*.flac)
Тип рипа: tracks+.cue
Битрейт аудио: lossless
Продолжительность: 48:53
Источник: What.CD
Наличие сканов в содержимом раздачи: нет

Треклист:

01. Queen - We Will Rock You
02. War - Low Rider
03. Bachman-Turner Overdrive - Takin' Care Of Business
04. David Bowie - Golden Years
05. Heart - Crazy On You (Bonus Track Not Featured In Film)
06. Eric Clapton - Further On Up The Road
07. Rare Earth - Get Ready
08. Sly & The Family Stone - I Want To Take You Higher
09. Thin Lizzy - The Boys Are Back In Town
10. Carter Burwell, Paul Bettany - One Of Your Own
11. Robbie Williams + Queen - We Are The Champions
12. Dan Powell - Pieces (Bonus Track Not Featured In Film)
13. Third Eye Blind - Eye Conqueror (Bonus Track Not Featured In Film)
 
Exact Audio Copy V0.99 prebeta 3 from 28. July 2007

EAC extraction logfile from 29. July 2009, 16:56

Various / A Knight's Tale (OST)

Used drive : TSSTcorpCDDVDW SH-S203N Adapter: 3 ID: 0

Read mode : SecureUtilize accurate stream : YesDefeat audio cache : YesMake use of C2 pointers : No

Read offset correction : 6Overread into Lead-In and Lead-Out : NoFill up missing offset samples with silence : YesDelete leading and trailing silent blocks : NoNull samples used in CRC calculations : YesUsed interface : Native Win32 interface for Win NT & 2000Gap handling : Appended to previous track

Used output format : User Defined EncoderSelected bitrate : 768 kBit/sQuality : HighAdd ID3 tag : NoCommand line compressor : C:\Program Files\Exact Audio Copy\Flac\FLAC.EXEAdditional command line options : -V -8 -T "artist=%a" -T "title=%t" -T "album=%g" -T "date=%y" -T "tracknumber=%n" -T "genre=%m" %s

TOC of the extracted CD

Track | Start | Length | Start sector | End sector --------------------------------------------------------- 1 | 0:00.00 | 2:02.22 | 0 | 9171 2 | 2:02.22 | 3:10.05 | 9172 | 23426 3 | 5:12.27 | 4:49.58 | 23427 | 45159 4 | 10:02.10 | 3:27.70 | 45160 | 60754 5 | 13:30.05 | 4:50.30 | 60755 | 82534 6 | 18:20.35 | 4:29.20 | 82535 | 102729 7 | 22:49.55 | 2:50.60 | 102730 | 115539 8 | 25:40.40 | 5:20.65 | 115540 | 139604 9 | 31:01.30 | 4:28.42 | 139605 | 159746 10 | 35:29.72 | 1:53.10 | 159747 | 168231 11 | 37:23.07 | 3:54.35 | 168232 | 185816 12 | 41:17.42 | 3:28.35 | 185817 | 201451 13 | 44:46.02 | 4:07.13 | 201452 | 219989

Track 1

Filename V:\What\Various Artists - A Knight's Tale (OST) (2001)\01 - We Will Rock You (Queen).wav

Pre-gap length 0:00:02.00

Peak level 97.7 % Track quality 100.0 % Test CRC 0DE562D6 Copy CRC 0DE562D6 Accurately ripped (confidence 7) [D5E1D5A6] Copy OK

Track 2

Filename V:\What\Various Artists - A Knight's Tale (OST) (2001)\02 - Low Rider (War).wav

Pre-gap length 0:00:01.10

Peak level 97.7 % Track quality 100.0 % Test CRC 50E8CCFD Copy CRC 50E8CCFD Accurately ripped (confidence 7) [BDC7A487] Copy OK

Track 3

Filename V:\What\Various Artists - A Knight's Tale (OST) (2001)\03 - Takin' Care Of Business (Bachman - Turner Overdrive).wav

Peak level 82.2 % Track quality 100.0 % Test CRC A8CFA2CE Copy CRC A8CFA2CE Accurately ripped (confidence 8) [A46AE402] Copy OK

Track 4

Filename V:\What\Various Artists - A Knight's Tale (OST) (2001)\04 - Golden Years (David Bowie).wav

Peak level 92.3 % Track quality 100.0 % Test CRC A815ABCA Copy CRC A815ABCA Accurately ripped (confidence 8) [99D38168] Copy OK

Track 5

Filename V:\What\Various Artists - A Knight's Tale (OST) (2001)\05 - Crazy On You (Heart).wav

Peak level 92.6 % Track quality 100.0 % Test CRC DC9B0E0E Copy CRC DC9B0E0E Accurately ripped (confidence 7) [CA9BAA3F] Copy OK

Track 6

Filename V:\What\Various Artists - A Knight's Tale (OST) (2001)\06 - Further On Up The Road (Eric Clapton).wav

Peak level 92.3 % Track quality 100.0 % Test CRC 11B13838 Copy CRC 11B13838 Accurately ripped (confidence 8) [7723FCB3] Copy OK

Track 7

Filename V:\What\Various Artists - A Knight's Tale (OST) (2001)\07 - Get Ready (Rare Earth).wav

Peak level 87.1 % Track quality 100.0 % Test CRC FA4ADC25 Copy CRC FA4ADC25 Accurately ripped (confidence 8) [8F453084] Copy OK

Track 8

Filename V:\What\Various Artists - A Knight's Tale (OST) (2001)\08 - I Want To Take You Higher (Sly And The Family Stone).wav

Peak level 98.8 % Track quality 100.0 % Test CRC 7F0BD5F7 Copy CRC 7F0BD5F7 Accurately ripped (confidence 8) [CEA03D78] Copy OK

Track 9

Filename V:\What\Various Artists - A Knight's Tale (OST) (2001)\09 - The Boys Are Back In Town (Thin Lizzy).wav

Pre-gap length 0:00:01.00

Peak level 77.6 % Track quality 100.0 % Test CRC 59C40E73 Copy CRC 59C40E73 Accurately ripped (confidence 8) [63932403] Copy OK

Track 10

Filename V:\What\Various Artists - A Knight's Tale (OST) (2001)\10 - One Of Your Own (Carter Burwell).wav

Pre-gap length 0:00:01.00

Peak level 98.8 % Track quality 100.0 % Test CRC ED9604A3 Copy CRC ED9604A3 Accurately ripped (confidence 8) [00EE21EE] Copy OK

Track 11

Filename V:\What\Various Artists - A Knight's Tale (OST) (2001)\11 - We Are The Champions (Robbie Williams And Queen).wav

Pre-gap length 0:00:01.22

Peak level 97.7 % Track quality 100.0 % Test CRC F8C84427 Copy CRC F8C84427 Accurately ripped (confidence 8) [4FD46F07] Copy OK

Track 12

Filename V:\What\Various Artists - A Knight's Tale (OST) (2001)\12 - Pieces (Dan Powell).wav

Pre-gap length 0:00:01.55

Peak level 85.1 % Track quality 100.0 % Test CRC F893816B Copy CRC F893816B Accurately ripped (confidence 8) [08F17DD7] Copy OK

Track 13

Filename V:\What\Various Artists - A Knight's Tale (OST) (2001)\13 - Eye Conqueror (Third Eye Blind).wav

Peak level 83.1 % Track quality 99.9 % Test CRC D4FEED2D Copy CRC D4FEED2D Accurately ripped (confidence 8) [112743C5] Copy OK

All tracks accurately ripped

No errors occurred

End of status report
 
REM GENRE SoundtrackREM DATE 2001REM DISCID 960B750DREM COMMENT "ExactAudioCopy v0.99pb3"PERFORMER "Various"TITLE "A Knight's Tale (OST)"FILE "01 - We Will Rock You (Queen).wav" WAVE TRACK 01 AUDIO TITLE "We Will Rock You" PERFORMER "Queen" INDEX 01 00:00:00 TRACK 02 AUDIO TITLE "Low Rider" PERFORMER "War" INDEX 00 02:01:12FILE "02 - Low Rider (War).wav" WAVE INDEX 01 00:00:00FILE "03 - Takin' Care Of Business (Bachman - Turner Overdrive).wav" WAVE TRACK 03 AUDIO TITLE "Takin' Care Of Business" PERFORMER "Bachman - Turner Overdrive" INDEX 01 00:00:00FILE "04 - Golden Years (David Bowie).wav" WAVE TRACK 04 AUDIO TITLE "Golden Years" PERFORMER "David Bowie" INDEX 01 00:00:00FILE "05 - Crazy On You (Heart).wav" WAVE TRACK 05 AUDIO TITLE "Crazy On You" PERFORMER "Heart" ISRC H2KM17600352 INDEX 01 00:00:00FILE "06 - Further On Up The Road (Eric Clapton).wav" WAVE TRACK 06 AUDIO TITLE "Further On Up The Road" PERFORMER "Eric Clapton" INDEX 01 00:00:00FILE "07 - Get Ready (Rare Earth).wav" WAVE TRACK 07 AUDIO TITLE "Get Ready" PERFORMER "Rare Earth" INDEX 01 00:00:00FILE "08 - I Want To Take You Higher (Sly And The Family Stone).wav" WAVE TRACK 08 AUDIO TITLE "I Want To Take You Higher" PERFORMER "Sly And The Family Stone" ISRC H2KM19900080 INDEX 01 00:00:00 TRACK 09 AUDIO TITLE "The Boys Are Back In Town" PERFORMER "Thin Lizzy" INDEX 00 05:19:65FILE "09 - The Boys Are Back In Town (Thin Lizzy).wav" WAVE INDEX 01 00:00:00 TRACK 10 AUDIO TITLE "One Of Your Own" PERFORMER "Carter Burwell" INDEX 00 04:27:42FILE "10 - One Of Your Own (Carter Burwell).wav" WAVE INDEX 01 00:00:00 TRACK 11 AUDIO TITLE "We Are The Champions" PERFORMER "Robbie Williams And Queen" INDEX 00 01:51:63FILE "11 - We Are The Champions (Robbie Williams And Queen).wav" WAVE INDEX 01 00:00:00 TRACK 12 AUDIO TITLE "Pieces" PERFORMER "Dan Powell" INDEX 00 03:52:55FILE "12 - Pieces (Dan Powell).wav" WAVE INDEX 01 00:00:00FILE "13 - Eye Conqueror (Third Eye Blind).wav" WAVE TRACK 13 AUDIO TITLE "Eye Conqueror" PERFORMER "Third Eye Blind" INDEX 01 00:00:00


Трекер:  [ 08-Июл-2011 23:45 ]

  

Скачать .torrent

Размер .torrent файла 14 KB


Размер: 328 MB
Хэш (hash) релиза: 3b2689e65047005d8952910ab262856cb44eaaad

Еще никто не оставлял запись к записи скачать торрент История рыцаря A Knights Tale . Будь первым!

!Обратная связь