Скачать через торрент музыку Тяжелый Метал 2000 Heavy Metal 2000 - 2000, FLAC бесплатно без регистрации torrent

Если у вас наблюдаются проблемы со скриншотами, переходом по ссылками, скачиванием торрентов - проблемы в блокировщике рекламы AdBlock. #хорошегоДня!


Статистика раздачи
Размер:  541 MB   |    Зарегистрирован:  6 лет 5 месяцев   |    .torrent скачан:  36 раз   |   
Раздают:  1  
   
Загрузка...
 
Автор Сообщение

Galfimbul

avatar Galfimbul


Heavy Metal 2000 (Original Motion Picture Soundrtrack)

Страна: Canada
Жанр: Soundtrack
Год выпуска: 2000
Формат: FLAC (image + .cue)
Битрейт аудио: lossless
Продолжительность: 1:13:56
Трэклист:
1. F. A. K. K. U - F. A. K. K. U
2. Silver Future - Monster Magnet
3. Missing Time - MDFMK
4. Immortally Insane - Pantera
5. Inside The Pervert Mound - Zilch
6. Dirt Ball - Insane Clown Posse
7. Storaged - System Of A Down
8. Rough Day - Days Of The New
9. Psychosexy - Sinisstar
10. Infinity - Queens Of The Stone Age
11. Alcoholocaust - Machine Head
12. Green Iron Fist - Full Devil Jacket
13. Hit Back - Hate Dept.
14. Tirale - Puya
15. Dystopia - Apartment 26
16. Buried Alive - Billy Idol
17. Wishes - Coal Chamber
18. The Dog's A Vapour - Bauhaus
Доп. информация:
Exact Audio Copy V0.99 prebeta 4 from 23. January 2008

Отчёт EAC об извлечении, выполненном 11. марта 2008, 19:34

Various Artists / Heavy Metal 2000 (Original Motion Picture Soundrtrack)

Дисковод: ASUS DRW-1814BLT Adapter: 3 ID: 0

Режим чтения : Достоверность
Использование точного потока : Да
Отключение кэша аудио : Да
Использование указателей C2 : Нет

Коррекция смещения при чтении : 6
Способность читать области Lead-in и Lead-out : Нет
Заполнение пропущенных сэмплов тишиной : Да
Удаление блоков с тишиной в начале и конце : Нет
При вычислениях CRC использовались нулевые сэмплы : Нет
Интерфейс : Установленный внешний ASPI-интерфейс

Выходной формат : Внутренние WAV-операции
Формат сэмплов : 44.100 Гц; 16 бит; стерео

TOC извлечённого CD

Трек | Старт | Длительность | Начальный сектор | Конечный сектор
---------------------------------------------------------------------
1 | 0:00.00 | 1:44.10 | 0 | 7809
2 | 1:44.10 | 4:29.60 | 7810 | 28044
3 | 6:13.70 | 4:35.57 | 28045 | 48726
4 | 10:49.52 | 5:11.68 | 48727 | 72119
5 | 16:01.45 | 4:07.30 | 72120 | 90674
6 | 20:09.00 | 5:33.35 | 90675 | 115684
7 | 25:42.35 | 1:17.60 | 115685 | 121519
8 | 27:00.20 | 3:18.10 | 121520 | 136379
9 | 30:18.30 | 4:02.72 | 136380 | 154601
10 | 34:21.27 | 4:40.03 | 154602 | 175604
11 | 39:01.30 | 3:38.52 | 175605 | 192006
12 | 42:40.07 | 3:51.53 | 192007 | 209384
13 | 46:31.60 | 3:52.02 | 209385 | 226786
14 | 50:23.62 | 5:34.38 | 226787 | 251874
15 | 55:58.25 | 2:56.52 | 251875 | 265126
16 | 58:55.02 | 5:10.73 | 265127 | 288449
17 | 64:06.00 | 3:06.00 | 288450 | 302399
18 | 67:12.00 | 6:44.10 | 302400 | 332709

Характеристики диапазона извлечения и сообщения об ошибках

Выбранный диапазон

Имя файла D:\Music Torrents\Various Artists - Heavy Metal 2000 (Original Motion Picture Soundrtrack)\Various Artists - Heavy Metal 2000 (Original Motion Picture Soundrtrack).wav

Пиковый уровень 100.0 %
Качество диапазона 100.0 %
CRC копии B82F5777
Копирование... OK

Ошибок не произошло

AccurateRip: сводка

Трек 1 точность не определена (достоверность 2) [484A8EA5], AccurateRip вернул [63C35E70]
Трек 2 точность не определена (достоверность 2) [4A1356F6], AccurateRip вернул [586CD13C]
Трек 3 точность не определена (достоверность 2) [F3122FE0], AccurateRip вернул [BC9C3B0F]
Трек 4 точность не определена (достоверность 2) [BB360E38], AccurateRip вернул [74A91E04]
Трек 5 точность не определена (достоверность 2) [B54642B1], AccurateRip вернул [8197910C]
Трек 6 точность не определена (достоверность 2) [28EE9C41], AccurateRip вернул [9497822F]
Трек 7 точность не определена (достоверность 2) [181316C8], AccurateRip вернул [D70C6FA9]
Трек 8 точность не определена (достоверность 2) [60BDEF54], AccurateRip вернул [8531D658]
Трек 9 точность не определена (достоверность 2) [BF9C8847], AccurateRip вернул [081CB09B]
Трек 10 точность не определена (достоверность 2) [FFF7C8CF], AccurateRip вернул [728FD0CC]
Трек 11 точность не определена (достоверность 2) [96E95D29], AccurateRip вернул [6065EE35]
Трек 12 точность не определена (достоверность 2) [8F63A1B3], AccurateRip вернул [E1F1DF34]
Трек 13 точность не определена (достоверность 2) [2336033E], AccurateRip вернул [6037960E]
Трек 14 точность не определена (достоверность 2) [3FE67F76], AccurateRip вернул [622D0259]
Трек 15 точность не определена (достоверность 2) [4B82E1AC], AccurateRip вернул [1423EA03]
Трек 16 точность не определена (достоверность 2) [EABA9834], AccurateRip вернул [68A2BD83]
Трек 17 точность не определена (достоверность 2) [517932B2], AccurateRip вернул [1EA635C5]
Трек 18 точность не определена (достоверность 5) [8FEBC03C], AccurateRip вернул [D26551C7]

Ни один трек не прошёл проверки на точность
В вашей базе может быть иной вариант штамповки диска

Конец отчёта


Трекер:  [ 08-Июл-2011 23:44 ]

  

Скачать .torrent

Размер .torrent файла 11 KB


Размер: 541 MB
Хэш (hash) релиза: abc2d1bccd3a34f04f04af051a7950b4661691f1

Еще никто не оставлял запись к записи скачать торрент Тяжелый Метал 2000 Heavy Metal 2000 - 2000, FLAC . Будь первым!

!Обратная связь