Скачать через торрент музыку Thomas Newman - Six Feet Under - 2002, FLAC бесплатно без регистрации torrent

Если у вас наблюдаются проблемы со скриншотами, переходом по ссылками, скачиванием торрентов - проблемы в блокировщике рекламы AdBlock. #хорошегоДня!


Статистика раздачи
Размер:  435 MB   |    Зарегистрирован:  6 лет 5 месяцев   |    .torrent скачан:  43 раза   |   
Раздают:  1  
   
Загрузка...
 
Автор Сообщение

Galfimbul

avatar Galfimbul


Thomas Newman - Six Feet Under

Жанр: Score / Soundtrack
Год выпуска диска: 2002
Аудио кодек: FLAC
Тип рипа: tracks+.cue
Битрейт аудио: lossless
Трэклист:
1. Thomas Newman - Six Feet Under Title Theme (1:36)
2. Lamb - Heaven (4:58)
3. Stereo MCs - Deep Down & Dirty (4:22)
4. Peggy Lee - I Love Being Here With You (2:44)
5. P.J. Harvey - One Time Too Many (2:52)
6. The Beta Band - Squares (3:44)
7. Zero 7 - Distractions (5:16)
8. Shuggie Otis - Inspiration Information (4:10)
9. The Dining Rooms - Pure & Easy (4:34)
10. Craig Armstrong featuring Paul Buchanan - Let's Go Out Tonight (6:02)
11. Classics IV - Spooky (2:50)
12. The Dandy Warhols - Bohemian Like You (3:28)
13. Orlando Cachaito Lopez - Mis Dos Pequeñas (4:04)
14. The Devlins - Waiting" (Tom Lord-Alge Remix) (4:51)
15. Thomas Newman - Six Feet Under Title Theme (Rae & Christian Remix) (5:19)
16. Thomas Newman - Six Feet Under Title Theme (Photek Remix) (5:08)
17. Julie London - Yummy Yummy Yummy (2:56)
Доп. информация:
Exact Audio Copy V0.99 prebeta 4 from 23. January 2008

EAC extraction logfile from 5. August 2008, 17:44

Various Artists / Six Feet Under

Used drive : PIONEER DVD-RW DVR-109 Adapter: 0 ID: 0

Read mode : Secure
Utilize accurate stream : Yes
Defeat audio cache : Yes
Make use of C2 pointers : No

Read offset correction : 48
Overread into Lead-In and Lead-Out : No
Fill up missing offset samples with silence : Yes
Delete leading and trailing silent blocks : No
Null samples used in CRC calculations : Yes
Used interface : Native Win32 interface for Win NT & 2000
Gap handling : Appended to previous track

Used output format : User Defined Encoder
Selected bitrate : 128 kBit/s
Quality : High
Add ID3 tag : No
Command line compressor : C:\Program Files\Exact Audio Copy\Flac\flac.exe
Additional command line options : -V -8 -T "artist=%a" -T "title=%t" -T "album=%g" -T "date=%y" -T "tracknumber=%n" -T "genre=%m" %s

TOC of the extracted CD

Track | Start | Length | Start sector | End sector
---------------------------------------------------------
1 | 0:00.00 | 1:36.52 | 0 | 7251
2 | 1:36.52 | 4:58.43 | 7252 | 29644
3 | 6:35.20 | 4:22.30 | 29645 | 49324
4 | 10:57.50 | 2:44.47 | 49325 | 61671
5 | 13:42.22 | 2:52.28 | 61672 | 74599
6 | 16:34.50 | 3:44.35 | 74600 | 91434
7 | 20:19.10 | 5:16.45 | 91435 | 115179
8 | 25:35.55 | 4:10.40 | 115180 | 133969
9 | 29:46.20 | 4:34.32 | 133970 | 154551
10 | 34:20.52 | 6:02.55 | 154552 | 181756
11 | 40:23.32 | 2:50.55 | 181757 | 194561
12 | 43:14.12 | 3:28.23 | 194562 | 210184
13 | 46:42.35 | 4:04.27 | 210185 | 228511
14 | 50:46.62 | 4:51.15 | 228512 | 250351
15 | 55:38.02 | 5:19.30 | 250352 | 274306
16 | 60:57.32 | 5:08.05 | 274307 | 297411
17 | 66:05.37 | 2:56.15 | 297412 | 310626

Track 1

Filename D:\My Music\Lossless Collection\Various Artists - 2002 - Six Feet Under\01 - Thomas Newman - Six Feet Under Title Theme.wav

Pre-gap length 0:00:02.00

Peak level 96.5 %
Track quality 100.0 %
Test CRC 03F47F0B
Copy CRC 03F47F0B
Accurately ripped (confidence 4) [2D1AD620]
Copy OK

Track 2

Filename D:\My Music\Lossless Collection\Various Artists - 2002 - Six Feet Under\02 - Lamb - Heaven.wav

Pre-gap length 0:00:00.42

Peak level 99.8 %
Track quality 100.0 %
Test CRC 3B15F7AE
Copy CRC 3B15F7AE
Accurately ripped (confidence 3) [116C68DA]
Copy OK

Track 3

Filename D:\My Music\Lossless Collection\Various Artists - 2002 - Six Feet Under\03 - Stereo MC's - Deep Down & Dirty.wav

Peak level 99.8 %
Track quality 100.0 %
Test CRC 137545D7
Copy CRC 137545D7
Accurately ripped (confidence 3) [689022E4]
Copy OK

Track 4

Filename D:\My Music\Lossless Collection\Various Artists - 2002 - Six Feet Under\04 - Peggy Lee - I Love Being Here With You.wav

Pre-gap length 0:00:00.04

Peak level 96.5 %
Track quality 100.0 %
Test CRC 756B9331
Copy CRC 756B9331
Accurately ripped (confidence 3) [B6FC9B4B]
Copy OK

Track 5

Filename D:\My Music\Lossless Collection\Various Artists - 2002 - Six Feet Under\05 - PJ Harvey - One Time Too Many.wav

Peak level 95.4 %
Track quality 100.0 %
Test CRC DA1130E6
Copy CRC DA1130E6
Accurately ripped (confidence 3) [41938136]
Copy OK

Track 6

Filename D:\My Music\Lossless Collection\Various Artists - 2002 - Six Feet Under\06 - The Beta Band - Squares.wav

Peak level 96.5 %
Track quality 99.9 %
Test CRC 470A76DD
Copy CRC 470A76DD
Accurately ripped (confidence 3) [F9F0552C]
Copy OK

Track 7

Filename D:\My Music\Lossless Collection\Various Artists - 2002 - Six Feet Under\07 - Zero 7 - Distractions.wav

Peak level 99.7 %
Track quality 100.0 %
Test CRC 555E8150
Copy CRC 555E8150
Accurately ripped (confidence 3) [FB6D511B]
Copy OK

Track 8

Filename D:\My Music\Lossless Collection\Various Artists - 2002 - Six Feet Under\08 - Shuggie Otis - Inspiration Information.wav

Peak level 95.4 %
Track quality 100.0 %
Test CRC 126E6775
Copy CRC 126E6775
Accurately ripped (confidence 3) [13997C09]
Copy OK

Track 9

Filename D:\My Music\Lossless Collection\Various Artists - 2002 - Six Feet Under\09 - The Dining Rooms - Pure & Easy.wav

Peak level 89.0 %
Track quality 100.0 %
Test CRC B4518B2B
Copy CRC B4518B2B
Accurately ripped (confidence 3) [71286BE6]
Copy OK

Track 10

Filename D:\My Music\Lossless Collection\Various Artists - 2002 - Six Feet Under\10 - Craig Armstrong - Let's Go Out Tonight (Feat. Paul Buchanan).wav

Pre-gap length 0:00:00.13

Peak level 96.5 %
Track quality 100.0 %
Test CRC 890E2D0E
Copy CRC 890E2D0E
Accurately ripped (confidence 3) [FEE7835D]
Copy OK

Track 11

Filename D:\My Music\Lossless Collection\Various Artists - 2002 - Six Feet Under\11 - Classics IV - Spooky.wav

Pre-gap length 0:00:00.82

Peak level 87.0 %
Track quality 100.0 %
Test CRC EAD716AE
Copy CRC EAD716AE
Accurately ripped (confidence 3) [34735C01]
Copy OK

Track 12

Filename D:\My Music\Lossless Collection\Various Artists - 2002 - Six Feet Under\12 - The Dandy Warhols - Bohemian Like You.wav

Peak level 96.5 %
Track quality 100.0 %
Test CRC C8FDDD7D
Copy CRC C8FDDD7D
Accurately ripped (confidence 3) [EDBC6A0C]
Copy OK

Track 13

Filename D:\My Music\Lossless Collection\Various Artists - 2002 - Six Feet Under\13 - Orlando Cachaito Lopez - Mis Dos Pequenas.wav

Pre-gap length 0:00:00.10

Peak level 96.5 %
Track quality 100.0 %
Test CRC F178376A
Copy CRC F178376A
Accurately ripped (confidence 3) [D5720ACD]
Copy OK

Track 14

Filename D:\My Music\Lossless Collection\Various Artists - 2002 - Six Feet Under\14 - Devlins - Waiting (Tom Lord-Alge Remix).wav

Peak level 96.5 %
Track quality 99.9 %
Test CRC 4617F688
Copy CRC 4617F688
Accurately ripped (confidence 3) [311A0CD8]
Copy OK

Track 15

Filename D:\My Music\Lossless Collection\Various Artists - 2002 - Six Feet Under\15 - Thomas Newman - Six Feet Under Main Theme (Rae & Christian Remix).wav

Peak level 96.5 %
Track quality 100.0 %
Test CRC 7B7C0C1C
Copy CRC 7B7C0C1C
Accurately ripped (confidence 3) [96FDF82C]
Copy OK

Track 16

Filename D:\My Music\Lossless Collection\Various Artists - 2002 - Six Feet Under\16 - Thomas Newman - Six Feet Under Main Theme (Photek Remix).wav

Peak level 95.4 %
Track quality 100.0 %
Test CRC 536B62C4
Copy CRC 536B62C4
Accurately ripped (confidence 3) [112C93AD]
Copy OK

Track 17

Filename D:\My Music\Lossless Collection\Various Artists - 2002 - Six Feet Under\17 - Julie London - Yummy Yummy Yummy.wav

Pre-gap length 0:00:00.86

Peak level 96.5 %
Track quality 100.0 %
Test CRC 984FCF0E
Copy CRC 984FCF0E
Accurately ripped (confidence 3) [82C39B64]
Copy OK

All tracks accurately ripped

No errors occurred

End of status report


Трекер:  [ 08-Июл-2011 23:58 ]

  

Скачать .torrent

Размер .torrent файла 19 KB


Размер: 435 MB
Хэш (hash) релиза: aaa9176d9cd7102155697b9430023970a73ca0ee

Еще никто не оставлял запись к записи скачать торрент Thomas Newman - Six Feet Under - 2002, FLAC . Будь первым!

!Обратная связь