Скачать через торрент музыку French Kiss - Original Motion Picture Soundtrack - 1995, FLAC бесплатно без регистрации torrent

Если у вас наблюдаются проблемы со скриншотами, переходом по ссылками, скачиванием торрентов - проблемы в блокировщике рекламы AdBlock. #хорошегоДня!


Статистика раздачи
Размер:  251 MB   |    Зарегистрирован:  6 лет 5 месяцев   |    .torrent скачан:  43 раза   |   
Раздают:  1  
   
Загрузка...
 
Автор Сообщение

Galfimbul

avatar Galfimbul


French Kiss - Original Motion Picture Soundtrack

Жанр: Various Artists
Год выпуска диска: 1995
Производитель диска: Россия
Аудио кодек: FLAC
Тип рипа: tracks+.cue
Битрейт аудио: lossless
Продолжительность: 44:39
Трэклист:
01. Someone Like You Performed by Van Morrison [04:05]
02. La Vie En Rose Performed by Louis Armstrong [03:24]
03. Dream A Little Dream Performed by The Beautiful South [03:33]
04. Via Con Me Performed by Paolo Conte [02:36]
05. I Love Paris Performed by Toots Thielemans [01:39]
06. Feels Like A Woman Performed by Zucchero [05:15]
07. La Mer Performed by Kevin Kline [03:43]
08. I Love Paris Performed by Ella Fitzgerald [04:58]
09. Verlaine Performed by Charles Trenet [03:13]
10. C'est Trop Beau Performed by Tino Rossi [02:32]
11. Les Yeux Ouverts Performed by The Beautiful South [03:33]
12. I Want You (Love Theme From "French Kiss") Performed by James Newton Howard [02:06]
13. Les Yeux De Ton Pere Performed by Les Negresses Vertes [03:57]
Noted on the film's soundtrack are Paolo Conte's "Via con me", Van Morrison's "Someone Like You" and, performed by Kevin Kline in French, Charles Trenet's "La Mer", as well as Louis Armstrong's version of "La Vie en Rose". The Beautiful South also did a cover of Dream a Little Dream of Me; Jason Statham was an extra in the video.
Exact Audio Copy V0.99 prebeta 4 from 23. January 2008

Отчёт EAC об извлечении, выполненном 4. апреля 2009, 14:53

Various / French Kiss - Original Motion Picture Soundtrack

Дисковод: MATSHITADVD-RAM UJ-850S Adapter: 1 ID: 0

Режим чтения : Достоверность
Использование точного потока : Да
Отключение кэша аудио : Да
Использование указателей C2 : Нет

Коррекция смещения при чтении : 102
Способность читать области Lead-in и Lead-out : Нет
Заполнение пропущенных сэмплов тишиной : Да
Удаление блоков с тишиной в начале и конце : Нет
При вычислениях CRC использовались нулевые сэмплы : Да
Интерфейс : Установленный внешний ASPI-интерфейс
Обработка зазоров : Добавлено к предыдущему треку

Выходной формат : Пользовательский кодировщик
Выбранный битрейт : 768 kBit/s
Качество : Высокий
Добавление ID3-тэга : Нет
Утилита сжатия : C:\Program Files\Exact Audio Copy\FLAC\FLAC.EXE
Дополнительные параметры : -V -8 -T "artist=%a" -T "title=%t" -T "album=%g" -T "date=%y" -T "tracknumber=%n" -T "genre=%m" %s

TOC извлечённого CD

Трек | Старт | Длительность | Начальный сектор | Конечный сектор
---------------------------------------------------------------------
1 | 0:00.00 | 4:05.27 | 0 | 18401
2 | 4:05.27 | 3:24.35 | 18402 | 33736
3 | 7:29.62 | 3:33.18 | 33737 | 49729
4 | 11:03.05 | 2:36.25 | 49730 | 61454
5 | 13:39.30 | 1:39.65 | 61455 | 68944
6 | 15:19.20 | 5:15.57 | 68945 | 92626
7 | 20:35.02 | 3:43.55 | 92627 | 109406
8 | 24:18.57 | 4:58.15 | 109407 | 131771
9 | 29:16.72 | 3:13.30 | 131772 | 146276
10 | 32:30.27 | 2:32.13 | 146277 | 157689
11 | 35:02.40 | 3:33.67 | 157690 | 173731
12 | 38:36.32 | 2:06.05 | 173732 | 183186
13 | 40:42.37 | 3:57.38 | 183187 | 200999

Трек 1

Имя файла C:\Users\1\Music\OST\French Kiss (Lossless)\01 - Van Morrison - Someone Like You.wav

Длина предзазора 0:00:02.00

Пиковый уровень 99.4 %
Качество трека 99.9 %
CRC теста F52826B6
CRC копии F52826B6
Копирование... OK

Трек 2

Имя файла C:\Users\1\Music\OST\French Kiss (Lossless)\02 - Louis Armstrong - La Vie En Rose.wav

Пиковый уровень 99.4 %
Качество трека 100.0 %
CRC теста 9E95242F
CRC копии 9E95242F
Копирование... OK

Трек 3

Имя файла C:\Users\1\Music\OST\French Kiss (Lossless)\03 - The Beautiful South - Dream A Little Dream.wav

Пиковый уровень 79.0 %
Качество трека 100.0 %
CRC теста 41F49BD6
CRC копии 41F49BD6
Копирование... OK

Трек 4

Имя файла C:\Users\1\Music\OST\French Kiss (Lossless)\04 - Paulo Conte - Via Con Me.wav

Пиковый уровень 99.4 %
Качество трека 100.0 %
CRC теста 4536470E
CRC копии 4536470E
Копирование... OK

Трек 5

Имя файла C:\Users\1\Music\OST\French Kiss (Lossless)\05 - Toots Thielmans - I Love Paris.wav

Пиковый уровень 86.6 %
Качество трека 100.0 %
CRC теста BCBA8408
CRC копии BCBA8408
Копирование... OK

Трек 6

Имя файла C:\Users\1\Music\OST\French Kiss (Lossless)\06 - Zucchero - Feels Like A Woman.wav

Пиковый уровень 100.0 %
Качество трека 99.9 %
CRC теста CF86F74A
CRC копии CF86F74A
Копирование... OK

Трек 7

Имя файла C:\Users\1\Music\OST\French Kiss (Lossless)\07 - Kevin Kline - La Mer.wav

Пиковый уровень 82.7 %
Качество трека 100.0 %
CRC теста 723E36C9
CRC копии 723E36C9
Копирование... OK

Трек 8

Имя файла C:\Users\1\Music\OST\French Kiss (Lossless)\08 - Ella Fitzgerald - I Love Paris.wav

Пиковый уровень 87.9 %
Качество трека 99.9 %
CRC теста 0150528D
CRC копии 0150528D
Копирование... OK

Трек 9

Имя файла C:\Users\1\Music\OST\French Kiss (Lossless)\09 - Charles Trenet - Verlaine.wav

Пиковый уровень 99.6 %
Качество трека 100.0 %
CRC теста DEBC0B7E
CRC копии DEBC0B7E
Копирование... OK

Трек 10

Имя файла C:\Users\1\Music\OST\French Kiss (Lossless)\10 - Tino Rossi - C'est Trop Beau.wav

Пиковый уровень 99.7 %
Качество трека 100.0 %
CRC теста 3EBB0A62
CRC копии 3EBB0A62
Копирование... OK

Трек 11

Имя файла C:\Users\1\Music\OST\French Kiss (Lossless)\11 - The Beautiful South - Les Yeux Ouverts.wav

Пиковый уровень 73.4 %
Качество трека 100.0 %
CRC теста 28711608
CRC копии 28711608
Копирование... OK

Трек 12

Имя файла C:\Users\1\Music\OST\French Kiss (Lossless)\12 - James Newton Howard - I Want You (Love Theme From 'French Kiss').wav

Пиковый уровень 59.4 %
Качество трека 100.0 %
CRC теста 081E7012
CRC копии 081E7012
Копирование... OK

Трек 13

Имя файла C:\Users\1\Music\OST\French Kiss (Lossless)\13 - Les Negresses Vertes - Les Yeux De Ton Pere.wav

Пиковый уровень 100.0 %
Качество трека 100.0 %
CRC теста E7CEE10E
CRC копии E7CEE10E
Копирование... OK

Ошибок не произошло

Конец отчёта


Трекер:  [ 08-Июл-2011 23:57 ]

  

Скачать .torrent

Размер .torrent файла 21 KB


Размер: 251 MB
Хэш (hash) релиза: eb6060644f5f7ad64bb6cc9084a8a3565a7f8bae

Еще никто не оставлял запись к записи скачать торрент French Kiss - Original Motion Picture Soundtrack - 1995, FLAC . Будь первым!

!Обратная связь