Скачать через торрент музыку Эволюция Evolution бесплатно без регистрации torrent

Если у вас наблюдаются проблемы со скриншотами, переходом по ссылками, скачиванием торрентов - проблемы в блокировщике рекламы AdBlock. #хорошегоДня!


Статистика раздачи
Размер:  237 MB   |    Зарегистрирован:  6 лет 5 месяцев   |    .torrent скачан:  51 раз   |   
Раздают:  1  
   
Загрузка...
 
Автор Сообщение

Galfimbul

avatar Galfimbul


Эволюция / Evolution

Жанр: Score || Композитор: John Powell || Год выпуска: 2001 || Страна: USA || Аудио кодек: FLAC || Тип рипа: tracks+.cue || Битрейт аудио: lossless
Продолжительность: 00:40:27 || Источник: what.cd

01 - The Meteor (00:54)
02 - Cells Divide (01:23)
03 - In The Hall By The Pool (01:42)
04 - The Army Arrives (01:08)
05 - The Ira Kane? (01:12)
06 - Fruit Basket For Russell Woodman (00:45)
07 - The Water Hazard (00:47)
08 - Burgled (01:15)
09 - The Forest (02:12)
10 - The Cave Waltz (01:02)
11 - Blue Fly (01:28)
12 - Cutie Pie (02:18)
13 - Animal Attack (01:10)
14 - Dino Valley (02:05)
15 - The Mall Chase (04:32)
16 - Monitors Out (02:40)
17 - Room For One More (01:29)
18 - Fire (00:43)
19 - Selenium (01:08)
20 - The Fire Truck (02:30)
21 - The Amoeba Emerges (02:14)
22 - To Go Where No Man Has Gone Before (03:29)
23 - Our Heroes (02:22)

 
Exact Audio Copy V0.99 prebeta 5 from 4. May 2009

EAC extraction logfile from 2. September 2010, 16:31

John Powell / Evolution

Used drive : LITE-ON DVDRW SHM-165H6S Adapter: 0 ID: 1

Read mode : SecureUtilize accurate stream : YesDefeat audio cache : YesMake use of C2 pointers : No

Read offset correction : 6Overread into Lead-In and Lead-Out : NoFill up missing offset samples with silence : YesDelete leading and trailing silent blocks : NoNull samples used in CRC calculations : YesUsed interface : Native Win32 interface for Win NT & 2000Gap handling : Appended to previous track

Used output format : User Defined EncoderSelected bitrate : 320 kBit/sQuality : HighAdd ID3 tag : NoCommand line compressor : C:\Program Files (x86)\Exact Audio Copy\Flac\flac.exeAdditional command line options : -V -8 -T "artist=%a" -T "title=%t" -T "album=%g" -T "date=%y" -T "tracknumber=%n" -T "genre=%m" %s

TOC of the extracted CD

Track | Start | Length | Start sector | End sector --------------------------------------------------------- 1 | 0:00.00 | 0:53.48 | 0 | 4022 2 | 0:53.48 | 1:23.29 | 4023 | 10276 3 | 2:17.02 | 1:42.09 | 10277 | 17935 4 | 3:59.11 | 1:08.04 | 17936 | 23039 5 | 5:07.15 | 1:12.06 | 23040 | 28445 6 | 6:19.21 | 0:44.66 | 28446 | 31811 7 | 7:04.12 | 0:46.56 | 31812 | 35317 8 | 7:50.68 | 1:14.48 | 35318 | 40915 9 | 9:05.41 | 2:11.66 | 40916 | 50806 10 | 11:17.32 | 1:02.09 | 50807 | 55465 11 | 12:19.41 | 1:27.44 | 55466 | 62034 12 | 13:47.10 | 2:18.12 | 62035 | 72396 13 | 16:05.22 | 1:10.10 | 72397 | 77656 14 | 17:15.32 | 2:04.45 | 77657 | 87001 15 | 19:20.02 | 4:32.05 | 87002 | 107406 16 | 23:52.07 | 2:40.05 | 107407 | 119411 17 | 26:32.12 | 1:28.48 | 119412 | 126059 18 | 28:00.60 | 0:42.74 | 126060 | 129283 19 | 28:43.59 | 1:08.04 | 129284 | 134387 20 | 29:51.63 | 2:29.58 | 134388 | 145620 21 | 32:21.46 | 2:14.33 | 145621 | 155703 22 | 34:36.04 | 3:28.74 | 155704 | 171377 23 | 38:05.03 | 2:22.09 | 171378 | 182036

Track 1

Filename E:\EAC Rips\John Powell -2001- Evolution\01 - The Meteor.wav

Pre-gap length 0:00:02.00

Peak level 97.2 % Track quality 100.0 % Test CRC EB45EBFA Copy CRC EB45EBFA Accurately ripped (confidence 2) [9EFB3677] Copy OK

Track 2

Filename E:\EAC Rips\John Powell -2001- Evolution\02 - Cells Divide.wav

Peak level 96.4 % Track quality 100.0 % Test CRC FE495017 Copy CRC FE495017 Accurately ripped (confidence 2) [B7B1E0F0] Copy OK

Track 3

Filename E:\EAC Rips\John Powell -2001- Evolution\03 - In The Hall By The Pool.wav

Peak level 96.0 % Track quality 100.0 % Test CRC F37D399D Copy CRC F37D399D Accurately ripped (confidence 2) [4E3D9125] Copy OK

Track 4

Filename E:\EAC Rips\John Powell -2001- Evolution\04 - The Army Arrives.wav

Peak level 96.0 % Track quality 99.8 % Test CRC 13D14CD6 Copy CRC 13D14CD6 Accurately ripped (confidence 2) [6BD87283] Copy OK

Track 5

Filename E:\EAC Rips\John Powell -2001- Evolution\05 - The Ira Kane .wav

Peak level 95.7 % Track quality 100.0 % Test CRC 001FF28E Copy CRC 001FF28E Accurately ripped (confidence 2) [CF445201] Copy OK

Track 6

Filename E:\EAC Rips\John Powell -2001- Evolution\06 - Fruit Basket For Russell Woodman.wav

Peak level 95.7 % Track quality 100.0 % Test CRC DB53CDD5 Copy CRC DB53CDD5 Accurately ripped (confidence 2) [A6156829] Copy OK

Track 7

Filename E:\EAC Rips\John Powell -2001- Evolution\07 - The Water Hazard.wav

Peak level 95.5 % Track quality 100.0 % Test CRC 27FDCD3F Copy CRC 27FDCD3F Accurately ripped (confidence 2) [8290010A] Copy OK

Track 8

Filename E:\EAC Rips\John Powell -2001- Evolution\08 - Burgled.wav

Peak level 95.8 % Track quality 100.0 % Test CRC 217E6ECB Copy CRC 217E6ECB Accurately ripped (confidence 2) [DA2E60AD] Copy OK

Track 9

Filename E:\EAC Rips\John Powell -2001- Evolution\09 - The Forest.wav

Peak level 95.8 % Track quality 100.0 % Test CRC C3686A27 Copy CRC C3686A27 Accurately ripped (confidence 2) [6FA119BC] Copy OK

Track 10

Filename E:\EAC Rips\John Powell -2001- Evolution\10 - The Cave Waltz.wav

Peak level 95.5 % Track quality 99.8 % Test CRC DC81B75E Copy CRC DC81B75E Accurately ripped (confidence 2) [BC44D60F] Copy OK

Track 11

Filename E:\EAC Rips\John Powell -2001- Evolution\11 - Blue Fly.wav

Peak level 96.1 % Track quality 100.0 % Test CRC D42CDF56 Copy CRC D42CDF56 Accurately ripped (confidence 2) [C3FC2E8E] Copy OK

Track 12

Filename E:\EAC Rips\John Powell -2001- Evolution\12 - Cutie Pie.wav

Peak level 95.4 % Track quality 99.9 % Test CRC 8CE30D31 Copy CRC 8CE30D31 Accurately ripped (confidence 2) [258BA6C1] Copy OK

Track 13

Filename E:\EAC Rips\John Powell -2001- Evolution\13 - Animal Attack.wav

Peak level 95.8 % Track quality 100.0 % Test CRC 0903B729 Copy CRC 0903B729 Accurately ripped (confidence 2) [DFF156D1] Copy OK

Track 14

Filename E:\EAC Rips\John Powell -2001- Evolution\14 - Dino Valley.wav

Peak level 96.0 % Track quality 100.0 % Test CRC 38B5661A Copy CRC 38B5661A Accurately ripped (confidence 2) [19D22033] Copy OK

Track 15

Filename E:\EAC Rips\John Powell -2001- Evolution\15 - The Mall Chase.wav

Peak level 96.0 % Track quality 100.0 % Test CRC 9A44269F Copy CRC 9A44269F Accurately ripped (confidence 2) [544B2706] Copy OK

Track 16

Filename E:\EAC Rips\John Powell -2001- Evolution\16 - Monitors Out.wav

Peak level 96.0 % Track quality 99.9 % Test CRC AF4C6CE9 Copy CRC AF4C6CE9 Accurately ripped (confidence 2) [BF6D2CA1] Copy OK

Track 17

Filename E:\EAC Rips\John Powell -2001- Evolution\17 - Room For One More.wav

Peak level 55.0 % Track quality 99.8 % Test CRC 137A503F Copy CRC 137A503F Accurately ripped (confidence 2) [BFBCBC6A] Copy OK

Track 18

Filename E:\EAC Rips\John Powell -2001- Evolution\18 - Fire.wav

Peak level 95.4 % Track quality 100.0 % Test CRC F494FB8F Copy CRC F494FB8F Accurately ripped (confidence 2) [ADE17D49] Copy OK

Track 19

Filename E:\EAC Rips\John Powell -2001- Evolution\19 - Selenium.wav

Peak level 95.3 % Track quality 99.8 % Test CRC 244B0659 Copy CRC 244B0659 Accurately ripped (confidence 2) [CEEB85C0] Copy OK

Track 20

Filename E:\EAC Rips\John Powell -2001- Evolution\20 - The Fire Truck.wav

Peak level 95.8 % Track quality 99.9 % Test CRC 030212D6 Copy CRC 030212D6 Accurately ripped (confidence 2) [43EE778E] Copy OK

Track 21

Filename E:\EAC Rips\John Powell -2001- Evolution\21 - The Amoeba Emerges.wav

Peak level 96.3 % Track quality 100.0 % Test CRC E343399F Copy CRC E343399F Accurately ripped (confidence 2) [222BCC33] Copy OK

Track 22

Filename E:\EAC Rips\John Powell -2001- Evolution\22 - To Go Where No Man Has Gone Before.wav

Peak level 96.0 % Track quality 100.0 % Test CRC 61563A97 Copy CRC 61563A97 Accurately ripped (confidence 2) [21261E7B] Copy OK

Track 23

Filename E:\EAC Rips\John Powell -2001- Evolution\23 - Our Heroes.wav

Peak level 96.5 % Track quality 99.9 % Test CRC 32CB56ED Copy CRC 32CB56ED Accurately ripped (confidence 2) [ECFAA376] Copy OK

All tracks accurately ripped

No errors occurred

End of status report
 
REM GENRE SoundtrackREM DATE 2001REM DISCID 4A097B17REM COMMENT "ExactAudioCopy v0.99pb5"FILE "01 - The Meteor.wav" WAVE TRACK 01 AUDIO INDEX 01 00:00:00FILE "02 - Cells Divide.wav" WAVE TRACK 02 AUDIO INDEX 01 00:00:00FILE "03 - In The Hall By The Pool.wav" WAVE TRACK 03 AUDIO INDEX 01 00:00:00FILE "04 - The Army Arrives.wav" WAVE TRACK 04 AUDIO INDEX 01 00:00:00FILE "05 - The Ira Kane .wav" WAVE TRACK 05 AUDIO INDEX 01 00:00:00FILE "06 - Fruit Basket For Russell Woodman.wav" WAVE TRACK 06 AUDIO INDEX 01 00:00:00FILE "07 - The Water Hazard.wav" WAVE TRACK 07 AUDIO INDEX 01 00:00:00FILE "08 - Burgled.wav" WAVE TRACK 08 AUDIO INDEX 01 00:00:00FILE "09 - The Forest.wav" WAVE TRACK 09 AUDIO INDEX 01 00:00:00FILE "10 - The Cave Waltz.wav" WAVE TRACK 10 AUDIO INDEX 01 00:00:00FILE "11 - Blue Fly.wav" WAVE TRACK 11 AUDIO INDEX 01 00:00:00FILE "12 - Cutie Pie.wav" WAVE TRACK 12 AUDIO INDEX 01 00:00:00FILE "13 - Animal Attack.wav" WAVE TRACK 13 AUDIO INDEX 01 00:00:00FILE "14 - Dino Valley.wav" WAVE TRACK 14 AUDIO INDEX 01 00:00:00FILE "15 - The Mall Chase.wav" WAVE TRACK 15 AUDIO INDEX 01 00:00:00FILE "16 - Monitors Out.wav" WAVE TRACK 16 AUDIO INDEX 01 00:00:00FILE "17 - Room For One More.wav" WAVE TRACK 17 AUDIO INDEX 01 00:00:00FILE "18 - Fire.wav" WAVE TRACK 18 AUDIO INDEX 01 00:00:00FILE "19 - Selenium.wav" WAVE TRACK 19 AUDIO INDEX 01 00:00:00FILE "20 - The Fire Truck.wav" WAVE TRACK 20 AUDIO INDEX 01 00:00:00FILE "21 - The Amoeba Emerges.wav" WAVE TRACK 21 AUDIO INDEX 01 00:00:00FILE "22 - To Go Where No Man Has Gone Before.wav" WAVE TRACK 22 AUDIO INDEX 01 00:00:00FILE "23 - Our Heroes.wav" WAVE TRACK 23 AUDIO INDEX 01 00:00:00



Трекер:  [ 09-Июл-2011 00:18 ]

  

Скачать .torrent

Размер .torrent файла 20 KB


Размер: 237 MB
Хэш (hash) релиза: f01c1cad80857ead34c9ff377b6cf03deb34d66a

Еще никто не оставлял запись к записи скачать торрент Эволюция Evolution . Будь первым!

!Обратная связь