Скачать через торрент музыку Ennio Morricone - Лучшие хиты из кинофильмов - 2002, FLAC бесплатно без регистрации torrent

Если у вас наблюдаются проблемы со скриншотами, переходом по ссылками, скачиванием торрентов - проблемы в блокировщике рекламы AdBlock. #хорошегоДня!


Статистика раздачи
Размер:  400 MB   |    Зарегистрирован:  6 лет 5 месяцев   |    .torrent скачан:  91 раз   |   
Раздают:  1  
   
Загрузка...
 
Автор Сообщение

Galfimbul

avatar Galfimbul


Ennio Morricone - Лучшие хиты из кинофильмов

Жанр: SoundTrack
Год выпуска диска: 2002
Производитель диска: Россия
Аудио кодек: FLAC
Тип рипа: image+.cue
Битрейт аудио: lossless
Продолжительность: 65 мин.
Трэклист:

1. Once upon a time in America - Cockey's song
2. Le professionnel - Che Mai
3. The good, the bad & the ugly
4. Once upon a time in the West
5. For a few dollars more
6. Sacco & Vanzetti - Here's to you
7. Once upon a time in the West - The man with the harmonica
8. Orient express - le train
9. My name is Nobody - Good luck Jack
10. For a few dollars more - Bye bye colonel
11. The adventurer
12. Orient express
13. The secret
14. A fistful of dynamite
15. Poem of a woman
16. A fistful of dollars
17. Moses theme
18. A gun for ringo
19. La libertad
20. My name is Nobody

Доп. информация: суммарно по первым пяти трекам 83,2% CDDA
 
Exact Audio Copy V0.99 prebeta 4 from 23. January 2008

Отчёт EAC об извлечении, выполненном 15. октября 2008, 10:09

Ennio Morricone / Лучшие хиты из кинофильмов

Дисковод: TSSTcorpCD/DVDW SH-S183L Adapter: 0 ID: 1

Режим чтения : ДостоверностьИспользование точного потока : ДаОтключение кэша аудио : ДаИспользование указателей C2 : Нет

Коррекция смещения при чтении : 6Способность читать области Lead-in и Lead-out : НетЗаполнение пропущенных сэмплов тишиной : ДаУдаление блоков с тишиной в начале и конце : НетПри вычислениях CRC использовались нулевые сэмплы : ДаИнтерфейс : Установленный внешний ASPI-интерфейс

Выходной формат : Внутренние WAV-операцииФормат сэмплов : 44.100 Гц; 16 бит; стерео

TOC извлечённого CD

Трек | Старт | Длительность | Начальный сектор | Конечный сектор --------------------------------------------------------------------- 1 | 0:00.00 | 4:18.10 | 0 | 19359 2 | 4:18.10 | 3:24.19 | 19360 | 34678 3 | 7:42.29 | 2:57.23 | 34679 | 47976 4 | 10:39.52 | 3:55.73 | 47977 | 65674 5 | 14:35.50 | 2:41.59 | 65675 | 77808 6 | 17:17.34 | 3:10.18 | 77809 | 92076 7 | 20:27.52 | 3:18.35 | 92077 | 106961 8 | 23:46.12 | 3:03.51 | 106962 | 120737 9 | 26:49.63 | 5:29.74 | 120738 | 145486 10 | 32:19.62 | 2:06.62 | 145487 | 154998 11 | 34:26.49 | 3:25.07 | 154999 | 170380 12 | 37:51.56 | 4:14.64 | 170381 | 189494 13 | 42:06.45 | 3:59.73 | 189495 | 207492 14 | 46:06.43 | 3:36.00 | 207493 | 223692 15 | 49:42.43 | 3:22.50 | 223693 | 238892 16 | 53:05.18 | 1:47.01 | 238893 | 246918 17 | 54:52.19 | 2:45.24 | 246919 | 259317 18 | 57:37.43 | 2:20.58 | 259318 | 269875 19 | 59:58.26 | 1:54.57 | 269876 | 278482 20 | 61:53.08 | 3:05.01 | 278483 | 292358

Характеристики диапазона извлечения и сообщения об ошибках

Выбранный диапазон

Имя файла D:\Download\BitComets\Мои раздачи\Ennio Morricone\Ennio Morricone - Лучшие хиты из кинофильмов.wav

Пиковый уровень 98.8 % Качество диапазона 99.9 % CRC копии C714A5E5 Копирование... OK

Ошибок не произошло

Конец отчёта
 
Started at: среда, 15. 10. 2008. - 13:40.485 files found

1 -===- track 1 in drive TSSTcorpCD/DVDW SH-S183L Track ripped successfully Conclusion: this track is CDDA with probability 86% Tempfile successfully deleted.

2 -===- track 2 in drive TSSTcorpCD/DVDW SH-S183L Track ripped successfully Conclusion: this track is CDDA with probability 43% Tempfile successfully deleted.

3 -===- track 3 in drive TSSTcorpCD/DVDW SH-S183L Track ripped successfully Conclusion: this track is CDDA with probability 87% Tempfile successfully deleted.

4 -===- track 4 in drive TSSTcorpCD/DVDW SH-S183L Track ripped successfully Conclusion: this track is CDDA with probability 100% Tempfile successfully deleted.

5 -===- track 5 in drive TSSTcorpCD/DVDW SH-S183L Track ripped successfully Conclusion: this track is CDDA with probability 100% Tempfile successfully deleted.

Finished at: среда, 15. 10. 2008. - 13:48.09 (operation time: 0:07.21)


Трекер:  [ 09-Июл-2011 00:15 ]

  

Скачать .torrent

Размер .torrent файла 5 KB


Размер: 400 MB
Хэш (hash) релиза: db7cbd6dcab6e60eca5d379f19d31a79c4ef03e3

Еще никто не оставлял запись к записи скачать торрент Ennio Morricone - Лучшие хиты из кинофильмов - 2002, FLAC . Будь первым!

!Обратная связь