Скачать через торрент музыку Francis Lai - Itinéraire Dun Enfant Gâté Itineraire Dun Enfant Gate - 1988, FLAC бесплатно без регистрации torrent

Если у вас наблюдаются проблемы со скриншотами, переходом по ссылками, скачиванием торрентов - проблемы в блокировщике рекламы AdBlock. #хорошегоДня!


Статистика раздачи
Размер:  236 MB   |    Зарегистрирован:  6 лет 10 месяцев   |    .torrent скачан:  75 раз   |   
Раздают:  1  
   
Загрузка...
 
Автор Сообщение

AqvaGen


Francis Lai - Itinéraire D'un Enfant Gâté

Жанр: Score
Год выпуска диска: 1988
Аудио кодек: FLAC
Тип рипа: tracks+.cue
Битрейт аудио: lossless
Продолжительность: 42:19
Трэклист:
01. Symphonie pour un enfant gâté
02. Qui me dira (4:30)
Chanté par Patricia Grillo
03. Le cirque (4:00)
04. Isabelle (3:00)
Chanté par Jacques Brel
05. Qui me dira (4:45)
Chanté par Jean Guidoni
06. Itinéraire d'un enfant gâté (5:15)
Chanté par Nicole Croisille
07. Symphonie pour un cirque (3:33)
08. J'aurais aimé être un artiste (le blues du businessman) (3:45)
Chanté par Nicole Croisille
09. Une île (3:45)
Chanté par Jacques Brel
10. Qui me dira (4:30)
Chanté par Nicole Croisille
 
Exact Audio Copy V0.99 prebeta 4 from 23. January 2008

EAC extraction logfile from 16. July 2009, 11:56

Various / Itinйraire D'un Enfant Gвtй

Used drive : LITE-ON DVDRW LH-20A1S Adapter: 2 ID: 0

Read mode : SecureUtilize accurate stream : YesDefeat audio cache : YesMake use of C2 pointers : No

Read offset correction : 6Overread into Lead-In and Lead-Out : NoFill up missing offset samples with silence : YesDelete leading and trailing silent blocks : NoNull samples used in CRC calculations : YesUsed interface : Native Win32 interface for Win NT & 2000Gap handling : Appended to previous track

Used output format : User Defined EncoderSelected bitrate : 768 kBit/sQuality : HighAdd ID3 tag : NoCommand line compressor : C:\Program Files\FLAC\flac.exeAdditional command line options : -V -8 -T "artist=%a" -T "title=%t" -T "album=%g" -T "date=%y" -T "tracknumber=%n" -T "genre=%m" %s

TOC of the extracted CD

Track | Start | Length | Start sector | End sector --------------------------------------------------------- 1 | 0:00.32 | 4:06.33 | 32 | 18514 2 | 4:06.65 | 4:52.25 | 18515 | 40439 3 | 8:59.15 | 4:10.50 | 40440 | 59239 4 | 13:09.65 | 3:12.47 | 59240 | 73686 5 | 16:22.37 | 4:47.38 | 73687 | 95249 6 | 21:10.00 | 5:16.42 | 95250 | 118991 7 | 26:26.42 | 3:33.33 | 118992 | 134999 8 | 30:00.00 | 3:53.42 | 135000 | 152516 9 | 33:53.42 | 3:43.60 | 152517 | 169301 10 | 37:37.27 | 4:41.68 | 169302 | 190444

Track 1

Filename C:\Documents and Settings\Administrator\Dokumenty\Francis Lai\01 - Symphonie Pour Un Enfant Gвtй.wav

Pre-gap length 0:00:02.42

Peak level 87.1 % Track quality 100.0 % Test CRC 0D17C1CB Copy CRC 0D17C1CB Copy OK

Track 2

Filename C:\Documents and Settings\Administrator\Dokumenty\Francis Lai\02 - Qui Me Dira.wav

Pre-gap length 0:00:02.04

Peak level 67.6 % Track quality 100.0 % Test CRC 46FE7CFF Copy CRC 46FE7CFF Copy OK

Track 3

Filename C:\Documents and Settings\Administrator\Dokumenty\Francis Lai\03 - Le Cirque.wav

Pre-gap length 0:00:01.84

Peak level 77.4 % Track quality 100.0 % Test CRC CCEDDFD2 Copy CRC CCEDDFD2 Copy OK

Track 4

Filename C:\Documents and Settings\Administrator\Dokumenty\Francis Lai\04 - Isabelle.wav

Pre-gap length 0:00:02.17

Peak level 70.5 % Track quality 100.0 % Test CRC CB3415B4 Copy CRC CB3415B4 Copy OK

Track 5

Filename C:\Documents and Settings\Administrator\Dokumenty\Francis Lai\05 - Qui Me Dira.wav

Pre-gap length 0:00:01.69

Peak level 92.5 % Track quality 100.0 % Test CRC 246742F4 Copy CRC 246742F4 Copy OK

Track 6

Filename C:\Documents and Settings\Administrator\Dokumenty\Francis Lai\06 - Itinйraire D'un Enfant Gвtй.wav

Pre-gap length 0:00:01.60

Peak level 65.4 % Track quality 100.0 % Test CRC E4DB8BB5 Copy CRC E4DB8BB5 Copy OK

Track 7

Filename C:\Documents and Settings\Administrator\Dokumenty\Francis Lai\07 - Symphonie Pour Un Cirque.wav

Pre-gap length 0:00:01.86

Peak level 75.7 % Track quality 100.0 % Test CRC 99E766DD Copy CRC 99E766DD Copy OK

Track 8

Filename C:\Documents and Settings\Administrator\Dokumenty\Francis Lai\08 - J'aurai Aimй Etre Un Artiste (Le Blues Du Businessman).wav

Pre-gap length 0:00:02.17

Peak level 97.2 % Track quality 100.0 % Test CRC 9E0B47C4 Copy CRC 9E0B47C4 Copy OK

Track 9

Filename C:\Documents and Settings\Administrator\Dokumenty\Francis Lai\09 - Une Ile.wav

Pre-gap length 0:00:02.20

Peak level 78.3 % Track quality 99.9 % Test CRC C6F12509 Copy CRC C6F12509 Copy OK

Track 10

Filename C:\Documents and Settings\Administrator\Dokumenty\Francis Lai\10 - Qui Me Dira.wav

Pre-gap length 0:00:02.26

Peak level 86.0 % Track quality 99.9 % Test CRC 2D1E0982 Copy CRC 2D1E0982 Copy OK

No errors occurred

End of status report


Трекер:  [ 13-Фев-2011 11:06 ]

  

Скачать .torrent

Размер .torrent файла 19 KB


Размер: 236 MB
Хэш (hash) релиза: 4ca61103d5731faa711759bb3aeaf2820d912f50

bot

Топик был перенесен в форум Саундтреки к фильмам и мультфильмам (lossless)

Перенес AqvaGen

Хотите добавить комментарий к записи скачать торрент Francis Lai - Itinéraire Dun Enfant Gâté Itineraire Dun Enfant Gate - 1988, FLAC

!Обратная связь