Скачать через торрент музыку Marco Beltrami - Knowing Знамение - 2009, WAVPack бесплатно без регистрации torrent

Если у вас наблюдаются проблемы со скриншотами, переходом по ссылками, скачиванием торрентов - проблемы в блокировщике рекламы AdBlock. #хорошегоДня!


Статистика раздачи
Размер:  299 MB   |    Зарегистрирован:  6 лет 5 месяцев   |    .torrent скачан:  34 раза   |   
Раздают:  1  
   
Загрузка...
 
Автор Сообщение

Galfimbul

avatar Galfimbul


MARCO BELTRAMI- Knowing


Жанр: Soundtrack
Год выпуска диска: 2009
Производитель диска: USA
Аудио кодек: WAVPack
Тип рипа: image+.cue
Битрейт аудио: lossless
Продолжительность: 1:05:41.440 (173817504 samples)
01. Main Titles (2:09)
02. Door Jam (3:10)
03. EMT (2:19)
04. John and Caleb (1:59)
05. New York (4:12)
06. Aftermath (1:47)
07. Not a Kid Anymore (1:55)
08. Moose on the Loose (2:20)
09. Stalking the Waylands (1:24)
10. Numerology (3:06)
11. It´s the Sun (2:44)
12. John Spills (3:27)
13. Trailer Music (3:21)
14. 33 (3:30)
15. Loudmouth (2:43)
16. Revelations (3:29)
17. Thataway! (2:07)
18. Shock and Aww (4:02)
19. Caleb Leaves (7:06)
20. Roll over Beethoven (4:15)
21. New World Round (2:59)
22. Who wants an Apple? (1:36)
Exact Audio Copy V0.99 prebeta 4 from 23. January 2008

EAC extraction logfile from 7. April 2009, 4:29

Marco Beltrami / Knowing

Used drive : PLEXTOR DVDR PX-820A Adapter: 1 ID: 2

Read mode : Secure
Utilize accurate stream : Yes
Defeat audio cache : Yes
Make use of C2 pointers : No

Read offset correction : 48
Overread into Lead-In and Lead-Out : No
Fill up missing offset samples with silence : Yes
Delete leading and trailing silent blocks : No
Null samples used in CRC calculations : Yes
Used interface : Installed external ASPI interface

Used output format : Internal WAV Routines
Sample format : 44.100 Hz; 16 Bit; Stereo

TOC of the extracted CD

Track | Start | Length | Start sector | End sector
---------------------------------------------------------
1 | 0:00.00 | 2:09.13 | 0 | 9687
2 | 2:09.13 | 3:10.34 | 9688 | 23971
3 | 5:19.47 | 2:18.73 | 23972 | 34394
4 | 7:38.45 | 1:58.58 | 34395 | 43302
5 | 9:37.28 | 4:11.48 | 43303 | 62175
6 | 13:49.01 | 1:46.63 | 62176 | 70188
7 | 15:35.64 | 1:55.26 | 70189 | 78839
8 | 17:31.15 | 2:20.32 | 78840 | 89371
9 | 19:51.47 | 1:24.26 | 89372 | 95697
10 | 21:15.73 | 3:06.33 | 95698 | 109680
11 | 24:22.31 | 2:43.67 | 109681 | 121972
12 | 27:06.23 | 3:26.42 | 121973 | 137464
13 | 30:32.65 | 3:20.68 | 137465 | 152532
14 | 33:53.58 | 3:29.39 | 152533 | 168246
15 | 37:23.22 | 2:43.37 | 168247 | 180508
16 | 40:06.59 | 3:29.31 | 180509 | 196214
17 | 43:36.15 | 2:07.16 | 196215 | 205755
18 | 45:43.31 | 4:02.09 | 205756 | 223914
19 | 49:45.40 | 7:06.23 | 223915 | 255887
20 | 56:51.63 | 4:14.49 | 255888 | 274986
21 | 61:06.37 | 2:59.26 | 274987 | 288437
22 | 64:05.63 | 1:35.45 | 288438 | 295607

Range status and errors

Selected range

Filename D:\EAC\Marco Beltrami - Knowing.wav

Peak level 98.8 %
Range quality 100.0 %
Copy CRC EA381B97
Copy OK

No errors occurred

AccurateRip summary

Track 1 not present in database
Track 2 not present in database
Track 3 not present in database
Track 4 not present in database
Track 5 not present in database
Track 6 not present in database
Track 7 not present in database
Track 8 not present in database
Track 9 not present in database
Track 10 not present in database
Track 11 not present in database
Track 12 not present in database
Track 13 not present in database
Track 14 not present in database
Track 15 not present in database
Track 16 not present in database
Track 17 not present in database
Track 18 not present in database
Track 19 not present in database
Track 20 not present in database
Track 21 not present in database
Track 22 not present in database

None of the tracks are present in the AccurateRip database

End of status report


Трекер:  [ 09-Июл-2011 00:15 ]

  

Скачать .torrent

Размер .torrent файла 12 KB


Размер: 299 MB
Хэш (hash) релиза: e2e89572a2deb9f31a17c196bb17492c1af0d25c

Еще никто не оставлял запись к записи скачать торрент Marco Beltrami - Knowing Знамение - 2009, WAVPack . Будь первым!

!Обратная связь