Скачать через торрент музыку Пристрели их Shoot Em Up - 2007 бесплатно без регистрации torrent

Если у вас наблюдаются проблемы со скриншотами, переходом по ссылками, скачиванием торрентов - проблемы в блокировщике рекламы AdBlock. #хорошегоДня!


Статистика раздачи
Размер:  322 MB   |    Зарегистрирован:  6 лет 5 месяцев   |    .torrent скачан:  44 раза   |   
Раздают:  1  
   
Загрузка...
 
Автор Сообщение

Galfimbul

avatar Galfimbul


Пристрели их / Shoot 'Em Up

Жанр: Soundtack
Год выпуска диска: 2007
Производитель диска: Bulletproof
Аудио кодек: FLAC
Тип рипа: tracks+.cue
Битрейт аудио: lossless
Продолжительность: 00:45:44

01 - Paul Oakenfold - Switch On (04:04)
02 - Motörhead - Ace of Spades (02:45)
03 - Marr - Landscape (03:15)
04 - Midnight Movies - Patient Eye (05:22)
05 - DJ Swamp - Little Landmine (03:04)
06 - Jesca Hoop - Money (05:21)
07 - Max Romeo - Play With Your Pussy (02:39)
08 - All Too Much - Think Fast (03:25)
09 - Midnight Movies - Coral Den (03:23)
10 - DJ Swamp - Killer in the Rain (03:21)
11 - The Dillinger Escape Plan - Black Bubblegum (04:04)
12 - Strapping Young Lad - Zen (05:03)

Источник: lztr.us
 
Exact Audio Copy V0.99 prebeta 3 from 28. July 2007

EAC extraction logfile from 21. July 2010, 22:51

Various / Shoot 'Em Up

Used drive : ASUS DRW-2014L1T Adapter: 3 ID: 0

Read mode : SecureUtilize accurate stream : YesDefeat audio cache : YesMake use of C2 pointers : No

Read offset correction : 6Overread into Lead-In and Lead-Out : NoFill up missing offset samples with silence : YesDelete leading and trailing silent blocks : NoNull samples used in CRC calculations : YesUsed interface : Native Win32 interface for Win NT & 2000Gap handling : Appended to previous track

Used output format : User Defined EncoderSelected bitrate : 320 kBit/sQuality : HighAdd ID3 tag : NoCommand line compressor : C:\Program Files (x86)\FLAC\flac.exeAdditional command line options : -V -8 -T "artist=%a" -T "title=%t" -T "album=%g" -T "date=%y" -T "tracknumber=%n" -T "genre=%m" %s

TOC of the extracted CD

Track | Start | Length | Start sector | End sector --------------------------------------------------------- 1 | 0:00.00 | 4:03.38 | 0 | 18262 2 | 4:03.38 | 2:44.39 | 18263 | 30601 3 | 6:48.02 | 3:15.33 | 30602 | 45259 4 | 10:03.35 | 5:21.61 | 45260 | 69395 5 | 15:25.21 | 3:04.22 | 69396 | 83217 6 | 18:29.43 | 5:20.57 | 83218 | 107274 7 | 23:50.25 | 2:39.03 | 107275 | 119202 8 | 26:29.28 | 3:24.53 | 119203 | 134555 9 | 29:54.06 | 3:23.37 | 134556 | 149817 10 | 33:17.43 | 3:20.39 | 149818 | 164856 11 | 36:38.07 | 4:03.39 | 164857 | 183120 12 | 40:41.46 | 5:02.40 | 183121 | 205810

Track 1

Filename C:\EAC\Shoot 'Em Up (2007) [FLAC]\01 - Paul Oakenfold - Switch On.wav

Pre-gap length 0:00:02.00

Peak level 100.0 % Track quality 100.0 % Test CRC AC5470A7 Copy CRC AC5470A7 Accurately ripped (confidence 2) [784F4F71] Copy OK

Track 2

Filename C:\EAC\Shoot 'Em Up (2007) [FLAC]\02 - Motörhead - Ace of Spades.wav

Peak level 98.8 % Track quality 100.0 % Test CRC 9A26B9E5 Copy CRC 9A26B9E5 Accurately ripped (confidence 2) [F7859A84] Copy OK

Track 3

Filename C:\EAC\Shoot 'Em Up (2007) [FLAC]\03 - Marr - Landscape.wav

Peak level 98.8 % Track quality 100.0 % Test CRC 2216D0AB Copy CRC 2216D0AB Accurately ripped (confidence 2) [D4560D74] Copy OK

Track 4

Filename C:\EAC\Shoot 'Em Up (2007) [FLAC]\04 - Midnight Movies - Patient Eye.wav

Peak level 100.0 % Track quality 100.0 % Test CRC 2C3BB609 Copy CRC 2C3BB609 Accurately ripped (confidence 2) [4E8071A5] Copy OK

Track 5

Filename C:\EAC\Shoot 'Em Up (2007) [FLAC]\05 - DJ Swamp - Little Landmine.wav

Peak level 98.8 % Track quality 99.9 % Test CRC 4BD09936 Copy CRC 4BD09936 Accurately ripped (confidence 2) [0873EA49] Copy OK

Track 6

Filename C:\EAC\Shoot 'Em Up (2007) [FLAC]\06 - Jesca Hoop - Money.wav

Peak level 98.8 % Track quality 99.9 % Test CRC 55A4A6E9 Copy CRC 55A4A6E9 Accurately ripped (confidence 2) [2938F603] Copy OK

Track 7

Filename C:\EAC\Shoot 'Em Up (2007) [FLAC]\07 - Max Romeo - Play With Your Pussy.wav

Peak level 98.8 % Track quality 99.9 % Test CRC A3D3A11C Copy CRC A3D3A11C Accurately ripped (confidence 2) [01CFA2E2] Copy OK

Track 8

Filename C:\EAC\Shoot 'Em Up (2007) [FLAC]\08 - All Too Much - Think Fast.wav

Peak level 100.0 % Track quality 100.0 % Test CRC 2C727D05 Copy CRC 2C727D05 Accurately ripped (confidence 2) [6B1937C8] Copy OK

Track 9

Filename C:\EAC\Shoot 'Em Up (2007) [FLAC]\09 - Midnight Movies - Coral Den.wav

Peak level 100.0 % Track quality 100.0 % Test CRC 517151FF Copy CRC 517151FF Accurately ripped (confidence 2) [7FC2D151] Copy OK

Track 10

Filename C:\EAC\Shoot 'Em Up (2007) [FLAC]\10 - DJ Swamp - Killer in the Rain.wav

Peak level 98.8 % Track quality 100.0 % Test CRC 91DAAAE1 Copy CRC 91DAAAE1 Accurately ripped (confidence 2) [28277B47] Copy OK

Track 11

Filename C:\EAC\Shoot 'Em Up (2007) [FLAC]\11 - The Dillinger Escape Plan - Black Bubblegum.wav

Peak level 97.9 % Track quality 100.0 % Test CRC 735D4275 Copy CRC 735D4275 Accurately ripped (confidence 2) [C3DBF76B] Copy OK

Track 12

Filename C:\EAC\Shoot 'Em Up (2007) [FLAC]\12 - Strapping Young Lad - Zen.wav

Peak level 99.9 % Track quality 99.9 % Test CRC 782DB6FF Copy CRC 782DB6FF Accurately ripped (confidence 2) [4541B7E8] Copy OK

All tracks accurately ripped

No errors occurred

End of status report
 
REM GENRE SoundtrackREM DATE 2007REM DISCID 910AB80CREM COMMENT "ExactAudioCopy v0.99pb3"FILE "01 - Paul Oakenfold - Switch On.wav" WAVE TRACK 01 AUDIO FLAGS DCP INDEX 01 00:00:00FILE "02 - Motörhead - Ace of Spades.wav" WAVE TRACK 02 AUDIO FLAGS DCP INDEX 01 00:00:00FILE "03 - Marr - Landscape.wav" WAVE TRACK 03 AUDIO FLAGS DCP INDEX 01 00:00:00FILE "04 - Midnight Movies - Patient Eye.wav" WAVE TRACK 04 AUDIO FLAGS DCP INDEX 01 00:00:00FILE "05 - DJ Swamp - Little Landmine.wav" WAVE TRACK 05 AUDIO FLAGS DCP INDEX 01 00:00:00FILE "06 - Jesca Hoop - Money.wav" WAVE TRACK 06 AUDIO FLAGS DCP INDEX 01 00:00:00FILE "07 - Max Romeo - Play With Your Pussy.wav" WAVE TRACK 07 AUDIO FLAGS DCP INDEX 01 00:00:00FILE "08 - All Too Much - Think Fast.wav" WAVE TRACK 08 AUDIO FLAGS DCP INDEX 01 00:00:00FILE "09 - Midnight Movies - Coral Den.wav" WAVE TRACK 09 AUDIO FLAGS DCP INDEX 01 00:00:00FILE "10 - DJ Swamp - Killer in the Rain.wav" WAVE TRACK 10 AUDIO FLAGS DCP INDEX 01 00:00:00FILE "11 - The Dillinger Escape Plan - Black Bubblegum.wav" WAVE TRACK 11 AUDIO FLAGS DCP INDEX 01 00:00:00FILE "12 - Strapping Young Lad - Zen.wav" WAVE TRACK 12 AUDIO FLAGS DCP INDEX 01 00:00:00



Трекер:  [ 09-Июл-2011 00:10 ]

  

Скачать .torrent

Размер .torrent файла 14 KB


Размер: 322 MB
Хэш (hash) релиза: 54b105c11836f423d3f8900872628661a971c5e7

Торренты, похожие на Пристрели их Shoot Em Up - 2007 скачать торрент

Форум Название Автор Размер S L Добавлен
Саундтреки к фильмам и мультфильмам (mp3) ·· (Soundtack) Пристрели их / Shoot 'Em Up - 2007 [MP3 (tracks) 320 kbps] Солнышко 110085071105 MB 0 0 1292265690

21:41

13-Дек-10

Саундтреки к фильмам и мультфильмам (lossless) ·· (Score) Пристрели их / Shoot 'Em Up (by Paul Haslinger) - 2007, FLAC (tracks+.cue), lossless Sabin 177319180169 MB 0 0 1292270439

23:00

13-Дек-10

Еще никто не оставлял запись к записи скачать торрент Пристрели их Shoot Em Up - 2007 . Будь первым!

!Обратная связь