Скачать через торрент музыку Каникулы Гуфи A Goofy Movie бесплатно без регистрации torrent

Если у вас наблюдаются проблемы со скриншотами, переходом по ссылками, скачиванием торрентов - проблемы в блокировщике рекламы AdBlock. #хорошегоДня!


Статистика раздачи
Размер:  173 MB   |    Зарегистрирован:  6 лет 5 месяцев   |    .torrent скачан:  50 раз   |   
Раздают:  1  
   
Загрузка...
 
Автор Сообщение

Galfimbul

avatar Galfimbul


Каникулы Гуфи / A Goofy Movie

Жанр: Soundtrack / Score
Композитор: Carter Burwell
Год выпуска диска / фильма: 1995
Страна-производитель диска: USA
Издатель (лейбл): Walt Disney Records
Номер по каталогу: 60862-7
Аудио кодек: FLAC (*.flac)
Тип рипа: tracks+.cue
Битрейт аудио: lossless
Продолжительность: 00:30:32
Источник: скачано с what.cd
Наличие сканов в содержимом раздачи: нет

Треклист:
1. I 2 I (Tevin Campbell, Rosie Gaines) (4:02)
2. After Today (2:22)
3. Stand Out (Bill Farmer, Aaron Lohr) (3:02)
4. On The Open Road (3:02)
5. Lester's Possum Park (Bill Farmer) (1:27)
6. Nobody Else But You (2:36)
7. Opening Fanfare / Max's Dream (1:51)
8. Deep Sludge (2:05)
9. Bigfoot (2:16)
10. Hi Dad Soup (1:33)
11. Runaway Car (2:19)
12. Junction (Tevin Campbell) (0:47)
13. The Waterfall! / The Truth (Bill Farmer, Aaron Lohr) (3:10)
Discogs
 
Exact Audio Copy V0.99 prebeta 4 from 23. January 2008

EAC extraction logfile from 3. September 2009, 21:12

Walt Disney Pictures / A Goofy Movie

Used drive : MATSHITABD-CMB UJ-120 Adapter: 1 ID: 0

Read mode : SecureUtilize accurate stream : YesDefeat audio cache : YesMake use of C2 pointers : No

Read offset correction : 102Overread into Lead-In and Lead-Out : NoFill up missing offset samples with silence : YesDelete leading and trailing silent blocks : NoNull samples used in CRC calculations : YesUsed interface : Native Win32 interface for Win NT & 2000Gap handling : Appended to previous track

Used output format : User Defined EncoderSelected bitrate : 1024 kBit/sQuality : HighAdd ID3 tag : NoCommand line compressor : C:\Program Files (x86)\FLAC\flac.exeAdditional command line options : -6 -V -T "artist=%a" -T "title=%t" -T "album=%g" -T "date=%y" -T "tracknumber=%n" -T "genre=%m" %s %d

TOC of the extracted CD

Track | Start | Length | Start sector | End sector --------------------------------------------------------- 1 | 0:00.00 | 4:02.48 | 0 | 18197 2 | 4:02.48 | 2:22.65 | 18198 | 28912 3 | 6:25.38 | 3:02.22 | 28913 | 42584 4 | 9:27.60 | 3:02.65 | 42585 | 56299 5 | 12:30.50 | 1:27.38 | 56300 | 62862 6 | 13:58.13 | 2:36.65 | 62863 | 74627 7 | 16:35.03 | 1:51.32 | 74628 | 82984 8 | 18:26.35 | 2:05.33 | 82985 | 92392 9 | 20:31.68 | 2:16.07 | 92393 | 102599 10 | 22:48.00 | 1:33.38 | 102600 | 109612 11 | 24:21.38 | 2:19.00 | 109613 | 120037 12 | 26:40.38 | 0:47.00 | 120038 | 123562 13 | 27:27.38 | 3:10.52 | 123563 | 137864

Track 1

Filename D:\CD Rips\Walt Disney Pictures\A Goofy Movie\01 - I 2 I (Tevin Campbell Featuring Rosie Gaines).wav

Pre-gap length 0:00:02.00

Peak level 85.2 % Track quality 100.0 % Test CRC CC3DE9C1 Copy CRC CC3DE9C1 Copy OK

Track 2

Filename D:\CD Rips\Walt Disney Pictures\A Goofy Movie\02 - After Today (Aaron Lohr and Chorus).wav

Peak level 94.4 % Track quality 100.0 % Test CRC DA8E4344 Copy CRC DA8E4344 Copy OK

Track 3

Filename D:\CD Rips\Walt Disney Pictures\A Goofy Movie\03 - Stand Out (Tevin Campbell).wav

Peak level 89.1 % Track quality 99.9 % Test CRC 77F8497F Copy CRC 77F8497F Copy OK

Track 4

Filename D:\CD Rips\Walt Disney Pictures\A Goofy Movie\04 - On the Open Road (Bill Farmer, Aaron Lohr, and Chorus).wav

Pre-gap length 0:00:01.46

Peak level 94.4 % Track quality 100.0 % Test CRC B9D6707B Copy CRC B9D6707B Copy OK

Track 5

Filename D:\CD Rips\Walt Disney Pictures\A Goofy Movie\05 - Lester's Possum Park (Kevin Quinn and Chorus).wav

Pre-gap length 0:00:01.28

Peak level 94.4 % Track quality 100.0 % Test CRC C39E86E2 Copy CRC C39E86E2 Copy OK

Track 6

Filename D:\CD Rips\Walt Disney Pictures\A Goofy Movie\06 - Nobody Else but You (Bill Farmer and Aaron Lohr).wav

Pre-gap length 0:00:02.32

Peak level 94.4 % Track quality 100.0 % Test CRC DAC7122B Copy CRC DAC7122B Copy OK

Track 7

Filename D:\CD Rips\Walt Disney Pictures\A Goofy Movie\07 - Opening Fanfare-Max's Dream (Instrumental).wav

Pre-gap length 0:00:01.57

Peak level 94.4 % Track quality 100.0 % Test CRC 77D1D5C4 Copy CRC 77D1D5C4 Copy OK

Track 8

Filename D:\CD Rips\Walt Disney Pictures\A Goofy Movie\08 - Deep Sludge (Instrumental).wav

Pre-gap length 0:00:01.06

Peak level 82.0 % Track quality 100.0 % Test CRC 8398FB72 Copy CRC 8398FB72 Copy OK

Track 9

Filename D:\CD Rips\Walt Disney Pictures\A Goofy Movie\09 - Bigfoot (Instrumental).wav

Pre-gap length 0:00:01.45

Peak level 94.4 % Track quality 100.0 % Test CRC D9A33488 Copy CRC D9A33488 Copy OK

Track 10

Filename D:\CD Rips\Walt Disney Pictures\A Goofy Movie\10 - Hi Dad Soup (Instrumental).wav

Pre-gap length 0:00:01.53

Peak level 44.5 % Track quality 100.0 % Test CRC FE5B2952 Copy CRC FE5B2952 Copy OK

Track 11

Filename D:\CD Rips\Walt Disney Pictures\A Goofy Movie\11 - Runaway Car (Instrumental).wav

Pre-gap length 0:00:01.44

Peak level 92.2 % Track quality 100.0 % Test CRC EE641DD0 Copy CRC EE641DD0 Copy OK

Track 12

Filename D:\CD Rips\Walt Disney Pictures\A Goofy Movie\12 - Junction (Instrumental).wav

Pre-gap length 0:00:01.24

Peak level 94.4 % Track quality 100.0 % Test CRC 145BDEFA Copy CRC 145BDEFA Copy OK

Track 13

Filename D:\CD Rips\Walt Disney Pictures\A Goofy Movie\13 - The Waterfall!-The Truth (Instrumental).wav

Pre-gap length 0:00:01.44

Peak level 94.4 % Track quality 100.0 % Test CRC 43F751D4 Copy CRC 43F751D4 Copy OK

No errors occurred

End of status report
 
REM GENRE SoundtrackREM DATE 1995REM DISCID AE072E0DREM COMMENT "ExactAudioCopy v0.99pb4"CATALOG 0000000000000PERFORMER "Walt Disney Pictures"TITLE "A Goofy Movie"FILE "01 - I 2 I (Tevin Campbell Featuring Rosie Gaines).flac" FLAC TRACK 01 AUDIO TITLE "I 2 I (Tevin Campbell Featuring Rosie Gaines)" PERFORMER "Walt Disney Pictures" INDEX 01 00:00:00FILE "02 - After Today (Aaron Lohr and Chorus).flac" FLAC TRACK 02 AUDIO TITLE "After Today (Aaron Lohr and Chorus)" PERFORMER "Walt Disney Pictures" INDEX 01 00:00:00FILE "03 - Stand Out (Tevin Campbell).flac" FLAC TRACK 03 AUDIO TITLE "Stand Out (Tevin Campbell)" PERFORMER "Walt Disney Pictures" INDEX 01 00:00:00 TRACK 04 AUDIO TITLE "On the Open Road (Bill Farmer, Aaron Lohr, and Chorus)" PERFORMER "Walt Disney Pictures" INDEX 00 03:00:62FILE "04 - On the Open Road (Bill Farmer, Aaron Lohr, and Chorus).flac" FLAC INDEX 01 00:00:00 TRACK 05 AUDIO TITLE "Lester's Possum Park (Kevin Quinn and Chorus)" PERFORMER "Walt Disney Pictures" INDEX 00 03:01:44FILE "05 - Lester's Possum Park (Kevin Quinn and Chorus).flac" FLAC INDEX 01 00:00:00 TRACK 06 AUDIO TITLE "Nobody Else but You (Bill Farmer and Aaron Lohr)" PERFORMER "Walt Disney Pictures" INDEX 00 01:25:14FILE "06 - Nobody Else but You (Bill Farmer and Aaron Lohr).flac" FLAC INDEX 01 00:00:00 TRACK 07 AUDIO TITLE "Opening Fanfare-Max's Dream (Instrumental)" PERFORMER "Walt Disney Pictures" INDEX 00 02:35:22FILE "07 - Opening Fanfare-Max's Dream (Instrumental).flac" FLAC INDEX 01 00:00:00 TRACK 08 AUDIO TITLE "Deep Sludge (Instrumental)" PERFORMER "Walt Disney Pictures" INDEX 00 01:50:27FILE "08 - Deep Sludge (Instrumental).flac" FLAC INDEX 01 00:00:00 TRACK 09 AUDIO TITLE "Bigfoot (Instrumental)" PERFORMER "Walt Disney Pictures" INDEX 00 02:03:74FILE "09 - Bigfoot (Instrumental).flac" FLAC INDEX 01 00:00:00 TRACK 10 AUDIO TITLE "Hi Dad Soup (Instrumental)" PERFORMER "Walt Disney Pictures" INDEX 00 02:14:42FILE "10 - Hi Dad Soup (Instrumental).flac" FLAC INDEX 01 00:00:00 TRACK 11 AUDIO TITLE "Runaway Car (Instrumental)" PERFORMER "Walt Disney Pictures" INDEX 00 01:32:05FILE "11 - Runaway Car (Instrumental).flac" FLAC INDEX 01 00:00:00 TRACK 12 AUDIO TITLE "Junction (Instrumental)" PERFORMER "Walt Disney Pictures" INDEX 00 02:17:57FILE "12 - Junction (Instrumental).flac" FLAC INDEX 01 00:00:00 TRACK 13 AUDIO TITLE "The Waterfall!-The Truth (Instrumental)" PERFORMER "Walt Disney Pictures" INDEX 00 00:45:42FILE "13 - The Waterfall!-The Truth (Instrumental).flac" FLAC INDEX 01 00:00:00
 
REM GENRE SoundtrackREM DATE 1995REM DISCID AE072E0DREM COMMENT "ExactAudioCopy v0.99pb4"CATALOG 0000000000000PERFORMER "Walt Disney Pictures"TITLE "A Goofy Movie"FILE "01 - I 2 I (Tevin Campbell Featuring Rosie Gaines).wav" WAVE TRACK 01 AUDIO TITLE "I 2 I (Tevin Campbell Featuring Rosie Gaines)" PERFORMER "Walt Disney Pictures" INDEX 01 00:00:00FILE "02 - After Today (Aaron Lohr and Chorus).wav" WAVE TRACK 02 AUDIO TITLE "After Today (Aaron Lohr and Chorus)" PERFORMER "Walt Disney Pictures" INDEX 01 00:00:00FILE "03 - Stand Out (Tevin Campbell).wav" WAVE TRACK 03 AUDIO TITLE "Stand Out (Tevin Campbell)" PERFORMER "Walt Disney Pictures" INDEX 01 00:00:00 TRACK 04 AUDIO TITLE "On the Open Road (Bill Farmer, Aaron Lohr, and Chorus)" PERFORMER "Walt Disney Pictures" INDEX 00 03:00:62FILE "04 - On the Open Road (Bill Farmer, Aaron Lohr, and Chorus).wav" WAVE INDEX 01 00:00:00 TRACK 05 AUDIO TITLE "Lester's Possum Park (Kevin Quinn and Chorus)" PERFORMER "Walt Disney Pictures" INDEX 00 03:01:44FILE "05 - Lester's Possum Park (Kevin Quinn and Chorus).wav" WAVE INDEX 01 00:00:00 TRACK 06 AUDIO TITLE "Nobody Else but You (Bill Farmer and Aaron Lohr)" PERFORMER "Walt Disney Pictures" INDEX 00 01:25:14FILE "06 - Nobody Else but You (Bill Farmer and Aaron Lohr).wav" WAVE INDEX 01 00:00:00 TRACK 07 AUDIO TITLE "Opening Fanfare-Max's Dream (Instrumental)" PERFORMER "Walt Disney Pictures" INDEX 00 02:35:22FILE "07 - Opening Fanfare-Max's Dream (Instrumental).wav" WAVE INDEX 01 00:00:00 TRACK 08 AUDIO TITLE "Deep Sludge (Instrumental)" PERFORMER "Walt Disney Pictures" INDEX 00 01:50:27FILE "08 - Deep Sludge (Instrumental).wav" WAVE INDEX 01 00:00:00 TRACK 09 AUDIO TITLE "Bigfoot (Instrumental)" PERFORMER "Walt Disney Pictures" INDEX 00 02:03:74FILE "09 - Bigfoot (Instrumental).wav" WAVE INDEX 01 00:00:00 TRACK 10 AUDIO TITLE "Hi Dad Soup (Instrumental)" PERFORMER "Walt Disney Pictures" INDEX 00 02:14:42FILE "10 - Hi Dad Soup (Instrumental).wav" WAVE INDEX 01 00:00:00 TRACK 11 AUDIO TITLE "Runaway Car (Instrumental)" PERFORMER "Walt Disney Pictures" INDEX 00 01:32:05FILE "11 - Runaway Car (Instrumental).wav" WAVE INDEX 01 00:00:00 TRACK 12 AUDIO TITLE "Junction (Instrumental)" PERFORMER "Walt Disney Pictures" INDEX 00 02:17:57FILE "12 - Junction (Instrumental).wav" WAVE INDEX 01 00:00:00 TRACK 13 AUDIO TITLE "The Waterfall!-The Truth (Instrumental)" PERFORMER "Walt Disney Pictures" INDEX 00 00:45:42FILE "13 - The Waterfall!-The Truth (Instrumental).wav" WAVE INDEX 01 00:00:00


Трекер:  [ 09-Июл-2011 00:28 ]

  

Скачать .torrent

Размер .torrent файла 15 KB


Размер: 173 MB
Хэш (hash) релиза: 31971a44de30d1fcaaa5f4accba61745b935910d

Еще никто не оставлял запись к записи скачать торрент Каникулы Гуфи A Goofy Movie . Будь первым!

!Обратная связь